  0
SECTION
  2
HEADER
  9
$ACADVER
  1
AC1021
  9
$DWGCODEPAGE
  3
ANSI_1252
  9
$EXTMAX
 10
700.0
 20
495.0
 30
0.0
  9
$EXTMIN
 10
0.0
 20
-0.0
 30
0.0
  9
$LIMMIN
 10
0.0
 20
-0.0
  9
$LIMMAX
 10
700.0
 20
495.0
  9
$VIEWCTR
 10
350.0
 20
247.5
  9
$VIEWSIZE
 40
495.0
  9
$CLAYER
  8
0
  9
$LTSCALE
 40
38.5
  9
$CELTYPE
  6
BYLAYER
  9
$DIMSCALE
 40
1.0
  9
$DIMASZ
 40
5.8333333333
  9
$DIMEXO
 40
4.375
  9
$DIMDLI
 40
26.6
  9
$DIMEXE
 40
12.6
  9
$DIMCEN
 40
6.3
  9
$DIMLFAC
 40
1.0
  9
$DIMBLK
  1
_FILLED
  9
$DIMTXT
 40
4.1666666667
  9
$DIMTOL
 70
1
  9
$DIMLIM
 70
0
  9
$DIMTFAC
 40
1.0
  9
$DIMTP
 40
0.05
  9
$DIMTM
 40
0.05
  9
$PDMODE
 70
3
  9
$PDSIZE
 40
0.3125
  9
$HANDSEED
  5
4C4
  9
$TILEMODE
 70
1
  9
$MEASUREMENT
 70
1
  9
$INSUNITS
 70
4
  0
ENDSEC
  0
SECTION
  2
CLASSES
  0
CLASS
  1
ACDBDICTIONARYWDFLT
  2
AcDbDictionaryWithDefault
  3
AutoCAD 2000
 90
0
 91
1
280
0
281
0
  0
CLASS
  1
ACDBPLACEHOLDER
  2
AcDbPlaceHolder
  3
AutoCAD 2000
 90
0
 91
1
280
0
281
0
  0
CLASS
  1
LAYOUT
  2
AcDbLayout
  3
AutoCAD 2000
 90
0
 91
0
280
0
281
0
  0
ENDSEC
  0
SECTION
  2
TABLES
  0
TABLE
  2
VPORT
  5
8
100
AcDbSymbolTable
 70
2
  0
VPORT
  5
1F4
100
AcDbSymbolTableRecord
100
AcDbViewportTableRecord
  2
*ACTIVE
 70
0
 10
0.0
 20
0.0
 11
1.0
 21
1.0
 12
350.0
 22
247.5
 13
0.0
 23
0.0
 14
1.0
 24
1.0
 15
0.0
 25
0.0
 16
0.0
 26
0.0
 36
1.0
 17
0.0
 27
0.0
 37
0.0
 40
495.0
 41
1.4141414141
 42
50.0
 43
0.0
 44
0.0
 50
0.0
 51
0.0
 71
0
 72
100
 73
1
 74
1
 75
0
 76
0
 77
0
 78
0
  0
ENDTAB
  0
TABLE
  2
LTYPE
  5
5
100
AcDbSymbolTable
 70
6
  0
LTYPE
  5
14
100
AcDbSymbolTableRecord
100
AcDbLinetypeTableRecord
  2
BYBLOCK
 70
0
  3

 72
65
 73
0
 40
0.0
  0
LTYPE
  5
15
100
AcDbSymbolTableRecord
100
AcDbLinetypeTableRecord
  2
BYLAYER
 70
0
  3

 72
65
 73
0
 40
0.0
  0
LTYPE
  5
16
100
AcDbSymbolTableRecord
100
AcDbLinetypeTableRecord
  2
CONTINUOUS
 70
64
  3
Solid line
 72
65
 73
0
 40
0.0
  0
LTYPE
  5
1F5
100
AcDbSymbolTableRecord
100
AcDbLinetypeTableRecord
  2
CENTER
 70
64
  3
____ _ ____ _ ____ _ ____ _ ____ _ ____ _ ____
 72
65
 73
4
 40
0.6
 49
0.375
 74
0
 49
-0.075
 74
0
 49
0.075
 74
0
 49
-0.075
 74
0
  0
LTYPE
  5
1F6
100
AcDbSymbolTableRecord
100
AcDbLinetypeTableRecord
  2
HIDDEN
 70
64
  3
- - - - - - - - - - - - - - - - - - - -
 72
65
 73
2
 40
0.2
 49
0.1
 74
0
 49
-0.1
 74
0
  0
LTYPE
  5
1F7
100
AcDbSymbolTableRecord
100
AcDbLinetypeTableRecord
  2
PHANTOM
 70
64
  3
_____ _ _ _____ _ _ _____ _ _ _____
 72
65
 73
6
 40
0.8
 49
0.45
 74
0
 49
-0.05
 74
0
 49
0.1
 74
0
 49
-0.05
 74
0
 49
0.1
 74
0
 49
-0.05
 74
0
  0
LTYPE
  5
1F8
100
AcDbSymbolTableRecord
100
AcDbLinetypeTableRecord
  2
DOT
 70
64
  3
. . . . . . . . . . . . . . . . . . . .
 72
65
 73
2
 40
0.2
 49
0.1
 74
0
 49
-0.1
 74
0
  0
LTYPE
  5
1F9
100
AcDbSymbolTableRecord
100
AcDbLinetypeTableRecord
  2
DASHED
 70
64
  3
- - - - - - - - - - - - - - - - - - - -
 72
65
 73
2
 40
0.2
 49
0.1
 74
0
 49
-0.1
 74
0
  0
ENDTAB
  0
TABLE
  2
LAYER
  5
2
100
AcDbSymbolTable
 70
36
  0
LAYER
  5
10
100
AcDbSymbolTableRecord
100
AcDbLayerTableRecord
  2
0
 70
0
 62
7
  6
CONTINUOUS
370
-3
390
F
  0
LAYER
  5
1FA
100
AcDbSymbolTableRecord
100
AcDbLayerTableRecord
  2
DEFAULT_1
 70
0
 62
7
  6
CENTER
370
-3
390
F
  0
LAYER
  5
1FB
100
AcDbSymbolTableRecord
100
AcDbLayerTableRecord
  2
DEFAULT_2
 70
0
 62
8
  6
HIDDEN
370
-3
390
F
  0
LAYER
  5
1FC
100
AcDbSymbolTableRecord
100
AcDbLayerTableRecord
  2
DEFAULT_3
 70
0
 62
7
  6
PHANTOM
370
-3
390
F
  0
LAYER
  5
1FD
100
AcDbSymbolTableRecord
100
AcDbLayerTableRecord
  2
ANSICHT_3D
 70
0
 62
7
  6
CONTINUOUS
370
-3
390
F
  0
LAYER
  5
1FE
100
AcDbSymbolTableRecord
100
AcDbLayerTableRecord
  2
ANSICHT_LINKS
 70
0
 62
7
  6
CONTINUOUS
370
-3
390
F
  0
LAYER
  5
1FF
100
AcDbSymbolTableRecord
100
AcDbLayerTableRecord
  2
ANSICHT_RECHTS
 70
0
 62
7
  6
CONTINUOUS
370
-3
390
F
  0
LAYER
  5
200
100
AcDbSymbolTableRecord
100
AcDbLayerTableRecord
  2
AUSBLENDEN
 70
0
 62
7
  6
CONTINUOUS
370
-3
390
F
  0
LAYER
  5
201
100
AcDbSymbolTableRecord
100
AcDbLayerTableRecord
  2
BEZUGSACHSEN
 70
0
 62
7
  6
CONTINUOUS
370
-3
390
F
  0
LAYER
  5
202
100
AcDbSymbolTableRecord
100
AcDbLayerTableRecord
  2
BEZUGSEBENEN
 70
0
 62
7
  6
CONTINUOUS
370
-3
390
F
  0
LAYER
  5
203
100
AcDbSymbolTableRecord
100
AcDbLayerTableRecord
  2
BG_STARTBEZUEGE
 70
0
 62
7
  6
CONTINUOUS
370
-3
390
F
  0
LAYER
  5
204
100
AcDbSymbolTableRecord
100
AcDbLayerTableRecord
  2
BOHRUNGEN
 70
0
 62
7
  6
CONTINUOUS
370
-3
390
F
  0
LAYER
  5
205
100
AcDbSymbolTableRecord
100
AcDbLayerTableRecord
  2
FASEN
 70
0
 62
7
  6
CONTINUOUS
370
-3
390
F
  0
LAYER
  5
206
100
AcDbSymbolTableRecord
100
AcDbLayerTableRecord
  2
FLAECHEN
 70
0
 62
7
  6
CONTINUOUS
370
-3
390
F
  0
LAYER
  5
207
100
AcDbSymbolTableRecord
100
AcDbLayerTableRecord
  2
GEWINDE
 70
0
 62
7
  6
CONTINUOUS
370
-3
390
F
  0
LAYER
  5
208
100
AcDbSymbolTableRecord
100
AcDbLayerTableRecord
  2
HILFEN
 70
0
 62
7
  6
CONTINUOUS
370
-3
390
F
  0
LAYER
  5
209
100
AcDbSymbolTableRecord
100
AcDbLayerTableRecord
  2
KOSM_3D
 70
0
 62
7
  6
CONTINUOUS
370
-3
390
F
  0
LAYER
  5
20A
100
AcDbSymbolTableRecord
100
AcDbLayerTableRecord
  2
KOSM_NEW_VIEW10
 70
0
 62
7
  6
CONTINUOUS
370
-3
390
F
  0
LAYER
  5
20B
100
AcDbSymbolTableRecord
100
AcDbLayerTableRecord
  2
KURVEN
 70
0
 62
7
  6
CONTINUOUS
370
-3
390
F
  0
LAYER
  5
20C
100
AcDbSymbolTableRecord
100
AcDbLayerTableRecord
  2
LAY0001
 70
0
 62
7
  6
CONTINUOUS
370
-3
390
F
  0
LAYER
  5
20D
100
AcDbSymbolTableRecord
100
AcDbLayerTableRecord
  2
MOTOR
 70
0
 62
7
  6
CONTINUOUS
370
-3
390
F
  0
LAYER
  5
20E
100
AcDbSymbolTableRecord
100
AcDbLayerTableRecord
  2
PLAZIERUNG
 70
0
 62
7
  6
CONTINUOUS
370
-3
390
F
  0
LAYER
  5
20F
100
AcDbSymbolTableRecord
100
AcDbLayerTableRecord
  2
RUNDUNGEN
 70
0
 62
7
  6
CONTINUOUS
370
-3
390
F
  0
LAYER
  5
210
100
AcDbSymbolTableRecord
100
AcDbLayerTableRecord
  2
STOERK
 70
0
 62
7
  6
CONTINUOUS
370
-3
390
F
  0
LAYER
  5
211
100
AcDbSymbolTableRecord
100
AcDbLayerTableRecord
  2
TEIL_STARTBEZUEGE
 70
0
 62
7
  6
CONTINUOUS
370
-3
390
F
  0
LAYER
  5
212
100
AcDbSymbolTableRecord
100
AcDbLayerTableRecord
  2
XSEC_DATUMS
 70
0
 62
7
  6
CONTINUOUS
370
-3
390
F
  0
LAYER
  5
213
100
AcDbSymbolTableRecord
100
AcDbLayerTableRecord
  2
ZEICHNUNGSBEMASSUNGEN
 70
0
 62
7
  6
CONTINUOUS
370
-3
390
F
  0
LAYER
  5
214
100
AcDbSymbolTableRecord
100
AcDbLayerTableRecord
  2
_2D_DELETED_OBJS
 70
0
 62
7
  6
CONTINUOUS
370
-3
390
F
  0
LAYER
  5
215
100
AcDbSymbolTableRecord
100
AcDbLayerTableRecord
  2
_BLACK_HOLE
 70
0
 62
7
  6
CONTINUOUS
370
-3
390
F
  0
ENDTAB
  0
TABLE
  2
STYLE
  5
3
100
AcDbSymbolTable
 70
1
  0
STYLE
  5
11
100
AcDbSymbolTableRecord
100
AcDbTextStyleTableRecord
  2
STANDARD
 70
0
 40
0.0
 41
0.7
 50
0.0
 71
0
 42
0.2
  3
txt
  4

  0
STYLE
  5
216
100
AcDbSymbolTableRecord
100
AcDbTextStyleTableRecord
  2
TEXTSTYLE_1
 70
0
 40
0.0
 41
0.8
 50
0.0
 71
0
 42
0.2
  3
gdt
  4

  0
STYLE
  5
217
100
AcDbSymbolTableRecord
100
AcDbTextStyleTableRecord
  2
TEXTSTYLE_2
 70
0
 40
0.0
 41
0.7
 50
0.0
 71
0
 42
0.2
  3
gdt
  4

  0
STYLE
  5
218
100
AcDbSymbolTableRecord
100
AcDbTextStyleTableRecord
  2
TEXTSTYLE_3
 70
0
 40
0.0
 41
0.6
 50
0.0
 71
0
 42
0.2
  3
txt
  4

  0
ENDTAB
  0
TABLE
  2
VIEW
  5
6
100
AcDbSymbolTable
 70
0
  0
ENDTAB
  0
TABLE
  2
UCS
  5
7
100
AcDbSymbolTable
 70
0
  0
ENDTAB
  0
TABLE
  2
APPID
  5
9
100
AcDbSymbolTable
 70
1
  0
APPID
  5
219
100
AcDbSymbolTableRecord
100
AcDbRegAppTableRecord
  2
ACAD
 70
0
  0
ENDTAB
  0
TABLE
  2
BLOCK_RECORD
  5
1
100
AcDbSymbolTable
 70
0
  0
BLOCK_RECORD
  5
21A
100
AcDbSymbolTableRecord
100
AcDbBlockTableRecord
  2
*Model_Space
  0
BLOCK_RECORD
  5
21B
100
AcDbSymbolTableRecord
100
AcDbBlockTableRecord
  2
*Paper_Space
  0
BLOCK_RECORD
  5
21C
100
AcDbSymbolTableRecord
100
AcDbBlockTableRecord
  2
_FILLED
  0
BLOCK_RECORD
  5
21D
100
AcDbSymbolTableRecord
100
AcDbBlockTableRecord
  2
*D0
  0
BLOCK_RECORD
  5
21E
100
AcDbSymbolTableRecord
100
AcDbBlockTableRecord
  2
*D1
  0
BLOCK_RECORD
  5
21F
100
AcDbSymbolTableRecord
100
AcDbBlockTableRecord
  2
*D2
  0
BLOCK_RECORD
  5
220
100
AcDbSymbolTableRecord
100
AcDbBlockTableRecord
  2
*D3
  0
BLOCK_RECORD
  5
221
100
AcDbSymbolTableRecord
100
AcDbBlockTableRecord
  2
*D4
  0
BLOCK_RECORD
  5
222
100
AcDbSymbolTableRecord
100
AcDbBlockTableRecord
  2
*D5
  0
BLOCK_RECORD
  5
223
100
AcDbSymbolTableRecord
100
AcDbBlockTableRecord
  2
*D6
  0
BLOCK_RECORD
  5
224
100
AcDbSymbolTableRecord
100
AcDbBlockTableRecord
  2
*D7
  0
BLOCK_RECORD
  5
225
100
AcDbSymbolTableRecord
100
AcDbBlockTableRecord
  2
*D8
  0
BLOCK_RECORD
  5
226
100
AcDbSymbolTableRecord
100
AcDbBlockTableRecord
  2
*D9
  0
BLOCK_RECORD
  5
227
100
AcDbSymbolTableRecord
100
AcDbBlockTableRecord
  2
*D10
  0
BLOCK_RECORD
  5
228
100
AcDbSymbolTableRecord
100
AcDbBlockTableRecord
  2
*D11
  0
BLOCK_RECORD
  5
229
100
AcDbSymbolTableRecord
100
AcDbBlockTableRecord
  2
*D12
  0
BLOCK_RECORD
  5
22A
100
AcDbSymbolTableRecord
100
AcDbBlockTableRecord
  2
*D13
  0
BLOCK_RECORD
  5
22B
100
AcDbSymbolTableRecord
100
AcDbBlockTableRecord
  2
*D14
  0
BLOCK_RECORD
  5
22C
100
AcDbSymbolTableRecord
100
AcDbBlockTableRecord
  2
*D15
  0
BLOCK_RECORD
  5
22D
100
AcDbSymbolTableRecord
100
AcDbBlockTableRecord
  2
*D16
  0
BLOCK_RECORD
  5
22E
100
AcDbSymbolTableRecord
100
AcDbBlockTableRecord
  2
*D17
  0
BLOCK_RECORD
  5
22F
100
AcDbSymbolTableRecord
100
AcDbBlockTableRecord
  2
*D18
  0
BLOCK_RECORD
  5
230
100
AcDbSymbolTableRecord
100
AcDbBlockTableRecord
  2
*D19
  0
BLOCK_RECORD
  5
231
100
AcDbSymbolTableRecord
100
AcDbBlockTableRecord
  2
*D20
  0
BLOCK_RECORD
  5
232
100
AcDbSymbolTableRecord
100
AcDbBlockTableRecord
  2
*D21
  0
BLOCK_RECORD
  5
233
100
AcDbSymbolTableRecord
100
AcDbBlockTableRecord
  2
*D22
  0
BLOCK_RECORD
  5
234
100
AcDbSymbolTableRecord
100
AcDbBlockTableRecord
  2
*D23
  0
BLOCK_RECORD
  5
235
100
AcDbSymbolTableRecord
100
AcDbBlockTableRecord
  2
*D24
  0
BLOCK_RECORD
  5
236
100
AcDbSymbolTableRecord
100
AcDbBlockTableRecord
  2
SYMBOL_70_BL3
  0
BLOCK_RECORD
  5
237
100
AcDbSymbolTableRecord
100
AcDbBlockTableRecord
  2
SYMBOL_47_BL2
  0
BLOCK_RECORD
  5
238
100
AcDbSymbolTableRecord
100
AcDbBlockTableRecord
  2
SYMBOL_38_BL1
  0
BLOCK_RECORD
  5
239
100
AcDbSymbolTableRecord
100
AcDbBlockTableRecord
  2
SYMBOL_64_BL0
  0
ENDTAB
  0
TABLE
  2
DIMSTYLE
  5
A
100
AcDbSymbolTable
 70
1
100
AcDbDimStyleTable
 71
0
  0
DIMSTYLE
105
23A
100
AcDbSymbolTableRecord
100
AcDbDimStyleTableRecord
  2
STANDARD
 70
0
  3

  4

 40
1.0
 41
5.8333333333
 42
0.0625
 43
0.38
 44
0.18
 45
0.0
 46
0.0
 47
0.05
 48
0.05
140
4.1666666667
141
0.09
142
0.0
143
25.4
144
1.0
145
0.0
146
1.0
147
0.09
 71
1.0
 72
0.0
 73
0
 74
0
 75
0
 76
0
 77
1
 78
8
170
0
171
2
172
0
173
0
174
0
175
0
176
0
177
0
178
5
270
2
271
2
272
2
273
2
274
2
275
0
280
0
281
0
282
0
283
1
284
8
285
0
286
0
287
3
288
0
340
11
341
21C
342
21C
343
21C
344
21C
  0
DIMSTYLE
105
23B
100
AcDbSymbolTableRecord
100
AcDbDimStyleTableRecord
  2
DIMSTYLE_1
 70
0
  3

  4

 40
1.0
 41
5.8333333333
 42
0.0625
 43
0.38
 44
0.18
 45
0.0
 46
0.0
 47
0.5
 48
0.5
140
4.1666666667
141
0.09
142
0.0
143
25.4
144
1.0
145
0.0
146
1.0
147
0.09
 71
0.0
 72
0.0
 73
0
 74
0
 75
0
 76
0
 77
1
 78
8
170
0
171
2
172
0
173
0
174
0
175
0
176
0
177
0
178
5
270
2
271
3
272
3
273
2
274
2
275
0
280
0
281
0
282
0
283
1
284
8
285
0
286
0
287
3
288
0
340
11
341
21C
342
21C
343
21C
344
21C
  0
DIMSTYLE
105
23C
100
AcDbSymbolTableRecord
100
AcDbDimStyleTableRecord
  2
DIMSTYLE_2
 70
0
  3

  4

 40
1.0
 41
5.8333333333
 42
0.0625
 43
0.38
 44
0.18
 45
0.0
 46
0.0
 47
0.3
 48
0.3
140
4.1666666667
141
0.09
142
0.0
143
25.4
144
1.0
145
0.0
146
1.0
147
0.09
 71
0.0
 72
0.0
 73
0
 74
0
 75
0
 76
0
 77
1
 78
8
170
0
171
2
172
0
173
0
174
0
175
0
176
0
177
0
178
5
270
2
271
3
272
3
273
2
274
2
275
0
280
0
281
0
282
0
283
1
284
8
285
0
286
0
287
3
288
0
340
11
341
21C
342
21C
343
21C
344
21C
  0
DIMSTYLE
105
23D
100
AcDbSymbolTableRecord
100
AcDbDimStyleTableRecord
  2
DIMSTYLE_3
 70
0
  3

  4

 40
1.0
 41
5.8333333333
 42
0.0625
 43
0.38
 44
0.18
 45
0.0
 46
0.0
 47
0.3
 48
0.3
140
4.1666666667
141
0.09
142
0.0
143
25.4
144
1.0
145
0.0
146
1.0
147
0.09
 71
0.0
 72
0.0
 73
0
 74
0
 75
0
 76
0
 77
1
 78
8
170
0
171
2
172
0
173
0
174
0
175
0
176
0
177
0
178
5
270
2
271
2
272
2
273
2
274
2
275
0
280
0
281
0
282
0
283
1
284
8
285
0
286
0
287
3
288
0
340
11
341
21C
342
21C
343
21C
344
21C
  0
DIMSTYLE
105
23E
100
AcDbSymbolTableRecord
100
AcDbDimStyleTableRecord
  2
DIMSTYLE_4
 70
0
  3

  4

 40
1.0
 41
5.8333333333
 42
0.0625
 43
0.38
 44
0.18
 45
0.0
 46
0.0
 47
0.3
 48
0.3
140
4.1666666667
141
0.09
142
0.0
143
25.4
144
1.0
145
0.0
146
1.0
147
0.09
 71
0.0
 72
0.0
 73
0
 74
0
 75
0
 76
0
 77
1
 78
8
170
0
171
2
172
0
173
0
174
0
175
0
176
0
177
0
178
5
270
2
271
2
272
2
273
2
274
2
275
0
280
0
281
0
282
0
283
1
284
8
285
0
286
0
287
3
288
0
340
11
341
21C
342
21C
343
21C
344
21C
  0
DIMSTYLE
105
23F
100
AcDbSymbolTableRecord
100
AcDbDimStyleTableRecord
  2
DIMSTYLE_5
 70
0
  3

  4

 40
1.0
 41
5.8333333333
 42
0.0625
 43
0.38
 44
0.18
 45
0.0
 46
0.0
 47
0.2
 48
0.2
140
4.1666666667
141
0.09
142
0.0
143
25.4
144
1.0
145
0.0
146
1.0
147
0.09
 71
0.0
 72
0.0
 73
0
 74
0
 75
0
 76
0
 77
1
 78
8
170
0
171
2
172
0
173
0
174
0
175
0
176
0
177
0
178
5
270
2
271
3
272
3
273
2
274
2
275
0
280
0
281
0
282
0
283
1
284
8
285
0
286
0
287
3
288
0
340
11
341
21C
342
21C
343
21C
344
21C
  0
DIMSTYLE
105
240
100
AcDbSymbolTableRecord
100
AcDbDimStyleTableRecord
  2
DIMSTYLE_6
 70
0
  3

  4

 40
1.0
 41
5.8333333333
 42
0.0625
 43
0.38
 44
0.18
 45
0.0
 46
0.0
 47
-0.01
 48
0.04
140
4.1666666667
141
0.09
142
0.0
143
25.4
144
1.0
145
0.0
146
1.0
147
0.09
 71
0.0
 72
0.0
 73
0
 74
0
 75
0
 76
0
 77
1
 78
8
170
0
171
2
172
0
173
0
174
0
175
0
176
0
177
0
178
5
270
2
271
2
272
2
273
2
274
2
275
0
280
0
281
0
282
0
283
1
284
8
285
0
286
0
287
3
288
0
340
11
341
21C
342
21C
343
21C
344
21C
  0
DIMSTYLE
105
241
100
AcDbSymbolTableRecord
100
AcDbDimStyleTableRecord
  2
DIMSTYLE_7
 70
0
  3

  4

 40
1.0
 41
5.8333333333
 42
0.0625
 43
0.38
 44
0.18
 45
0.0
 46
0.0
 47
0.0
 48
3.0
140
4.1666666667
141
0.09
142
0.0
143
25.4
144
1.0
145
0.0
146
0.6
147
0.09
 71
1.0
 72
0.0
 73
0
 74
0
 75
0
 76
0
 77
1
 78
8
170
0
171
2
172
0
173
0
174
0
175
0
176
0
177
0
178
5
270
2
271
2
272
2
273
2
274
2
275
0
280
0
281
0
282
0
283
1
284
8
285
0
286
0
287
3
288
0
340
11
341
21C
342
21C
343
21C
344
21C
  0
DIMSTYLE
105
242
100
AcDbSymbolTableRecord
100
AcDbDimStyleTableRecord
  2
DIMSTYLE_8
 70
0
  3

  4

 40
1.0
 41
5.8333333333
 42
0.0625
 43
0.38
 44
0.18
 45
0.0
 46
0.0
 47
0.001
 48
0.001
140
4.1666666667
141
0.09
142
0.0
143
25.4
144
1.0
145
0.0
146
1.0
147
0.09
 71
0.0
 72
0.0
 73
0
 74
0
 75
0
 76
0
 77
1
 78
8
170
0
171
2
172
0
173
0
174
0
175
0
176
0
177
0
178
5
270
2
271
3
272
3
273
2
274
2
275
0
280
0
281
0
282
0
283
1
284
8
285
0
286
0
287
3
288
0
340
11
341
21C
342
21C
343
21C
344
21C
  0
DIMSTYLE
105
243
100
AcDbSymbolTableRecord
100
AcDbDimStyleTableRecord
  2
DIMSTYLE_9
 70
0
  3

  4

 40
1.0
 41
5.8333333333
 42
0.0625
 43
0.38
 44
0.18
 45
0.0
 46
0.0
 47
0.2
 48
0.2
140
4.1666666667
141
0.09
142
0.0
143
25.4
144
1.0
145
0.0
146
1.0
147
0.09
 71
0.0
 72
0.0
 73
0
 74
0
 75
0
 76
0
 77
1
 78
8
170
0
171
2
172
0
173
0
174
0
175
0
176
0
177
0
178
5
270
2
271
2
272
2
273
2
274
2
275
0
280
0
281
0
282
0
283
1
284
8
285
0
286
0
287
3
288
0
340
11
341
21C
342
21C
343
21C
344
21C
  0
DIMSTYLE
105
244
100
AcDbSymbolTableRecord
100
AcDbDimStyleTableRecord
  2
DIMSTYLE_10
 70
0
  3

  4

 40
1.0
 41
5.8333333333
 42
0.0625
 43
0.38
 44
0.18
 45
0.0
 46
0.0
 47
0.5
 48
0.5
140
4.1666666667
141
0.09
142
0.0
143
25.4
144
1.0
145
0.0
146
1.0
147
0.09
 71
0.0
 72
0.0
 73
0
 74
0
 75
0
 76
0
 77
1
 78
8
170
0
171
2
172
0
173
0
174
0
175
0
176
0
177
0
178
5
270
2
271
1
272
1
273
2
274
2
275
0
280
0
281
0
282
0
283
1
284
8
285
0
286
0
287
3
288
0
340
11
341
21C
342
21C
343
21C
344
21C
  0
DIMSTYLE
105
245
100
AcDbSymbolTableRecord
100
AcDbDimStyleTableRecord
  2
DIMSTYLE_11
 70
0
  3

  4

 40
1.0
 41
5.8333333333
 42
0.0625
 43
0.38
 44
0.18
 45
0.0
 46
0.0
 47
0.3
 48
0.3000000003
140
4.1666666667
141
0.09
142
0.0
143
25.4
144
1.0
145
0.0
146
0.6
147
0.09
 71
1.0
 72
0.0
 73
0
 74
0
 75
0
 76
0
 77
1
 78
8
170
0
171
2
172
0
173
0
174
0
175
0
176
0
177
0
178
5
270
2
271
2
272
2
273
2
274
2
275
0
280
0
281
0
282
0
283
1
284
8
285
0
286
0
287
3
288
0
340
11
341
21C
342
21C
343
21C
344
21C
  0
DIMSTYLE
105
246
100
AcDbSymbolTableRecord
100
AcDbDimStyleTableRecord
  2
DIMSTYLE_12
 70
0
  3

  4

 40
1.0
 41
5.8333333333
 42
0.0625
 43
0.38
 44
0.18
 45
0.0
 46
0.0
 47
0.3
 48
0.3
140
4.1666666667
141
0.09
142
0.0
143
25.4
144
1.0
145
0.0
146
1.0
147
0.09
 71
0.0
 72
0.0
 73
0
 74
0
 75
0
 76
0
 77
1
 78
8
170
0
171
2
172
0
173
0
174
0
175
0
176
0
177
0
178
5
270
2
271
3
272
3
273
2
274
2
275
0
280
0
281
0
282
0
283
1
284
8
285
0
286
0
287
3
288
0
340
11
341
21C
342
21C
343
21C
344
21C
  0
DIMSTYLE
105
247
100
AcDbSymbolTableRecord
100
AcDbDimStyleTableRecord
  2
DIMSTYLE_13
 70
0
  3

  4

 40
1.0
 41
5.8333333333
 42
0.0625
 43
0.38
 44
0.18
 45
0.0
 46
0.0
 47
0.1
 48
0.1
140
4.1666666667
141
0.09
142
0.0
143
25.4
144
1.0
145
0.0
146
1.0
147
0.09
 71
0.0
 72
0.0
 73
0
 74
0
 75
0
 76
0
 77
1
 78
8
170
0
171
2
172
0
173
0
174
0
175
0
176
0
177
0
178
5
270
2
271
3
272
3
273
2
274
2
275
0
280
0
281
0
282
0
283
1
284
8
285
0
286
0
287
3
288
0
340
11
341
21C
342
21C
343
21C
344
21C
  0
ENDTAB
  0
ENDSEC
  0
SECTION
  2
BLOCKS
  0
BLOCK
  5
20
100
AcDbEntity
  8
0
100
AcDbBlockBegin
  2
*Model_Space
 70
0
 10
0.0
 20
0.0
 30
0.0
  3
*Model_Space
  1

  0
ENDBLK
  5
21
100
AcDbEntity
  8
0
100
AcDbBlockEnd
  0
BLOCK
  5
1C
100
AcDbEntity
  8
0
100
AcDbBlockBegin
  2
*Paper_Space
 70
0
 10
0.0
 20
0.0
 30
0.0
  3
*Paper_Space
  1

  0
ENDBLK
  5
1D
100
AcDbEntity
  8
0
100
AcDbBlockEnd
  0
BLOCK
  5
248
100
AcDbEntity
  8
0
100
AcDbBlockBegin
 62
2
  6
CONTINUOUS
  2
SYMBOL_70_BL3
 70
64
 10
381.5264439968
 20
273.8937519424
  3
SYMBOL_70_BL3
  1

  0
LINE
  5
249
100
AcDbEntity
  8
0
100
AcDbLine
 62
2
  6
CONTINUOUS
 10
371.1097773301
 20
276.4030480911
 11
371.1097773301
 21
271.4030480911
  0
LINE
  5
24A
100
AcDbEntity
  8
0
100
AcDbLine
 62
2
  6
CONTINUOUS
 10
371.1097773301
 20
276.3937519424
 11
375.2764439968
 21
273.8937519424
  0
LINE
  5
24B
100
AcDbEntity
  8
0
100
AcDbLine
 62
2
  6
CONTINUOUS
 10
375.2764439968
 20
273.8937519424
 11
371.1097773301
 21
271.3937519424
  0
LINE
  5
24C
100
AcDbEntity
  8
0
100
AcDbLine
 62
2
  6
CONTINUOUS
 10
375.2764439968
 20
273.8937519424
 11
380.2764439968
 21
273.8937519424
  0
LINE
  5
24D
100
AcDbEntity
  8
0
100
AcDbLine
 62
2
  6
CONTINUOUS
 10
380.2764439968
 20
279.7270852757
 11
380.2764439968
 21
268.0604186091
  0
LINE
  5
24E
100
AcDbEntity
  8
0
100
AcDbLine
 62
2
  6
CONTINUOUS
 10
380.2764439968
 20
268.0604186091
 11
391.9431106634
 21
268.0604186091
  0
LINE
  5
24F
100
AcDbEntity
  8
0
100
AcDbLine
 62
2
  6
CONTINUOUS
 10
391.9431106634
 20
268.0604186091
 11
391.9431106634
 21
279.7270852757
  0
LINE
  5
250
100
AcDbEntity
  8
0
100
AcDbLine
 62
2
  6
CONTINUOUS
 10
391.9431106634
 20
279.7270852757
 11
380.2764439968
 21
279.7270852757
  0
LINE
  5
251
100
AcDbEntity
  8
0
100
AcDbLine
 62
2
  6
CONTINUOUS
 10
371.1097773301
 20
271.5650666834
 11
371.3953018985
 21
271.5650666834
  0
LINE
  5
252
100
AcDbEntity
  8
0
100
AcDbLine
 62
2
  6
CONTINUOUS
 10
371.1097773301
 20
271.7317333501
 11
371.6730796763
 21
271.7317333501
  0
LINE
  5
253
100
AcDbEntity
  8
0
100
AcDbLine
 62
2
  6
CONTINUOUS
 10
371.1097773301
 20
271.8984000168
 11
371.950857454
 21
271.8984000168
  0
LINE
  5
254
100
AcDbEntity
  8
0
100
AcDbLine
 62
2
  6
CONTINUOUS
 10
371.1097773301
 20
272.0650666834
 11
372.2286352318
 21
272.0650666834
  0
LINE
  5
255
100
AcDbEntity
  8
0
100
AcDbLine
 62
2
  6
CONTINUOUS
 10
371.1097773301
 20
272.2317333501
 11
372.5064130096
 21
272.2317333501
  0
LINE
  5
256
100
AcDbEntity
  8
0
100
AcDbLine
 62
2
  6
CONTINUOUS
 10
371.1097773301
 20
272.3984000168
 11
372.7841907874
 21
272.3984000168
  0
LINE
  5
257
100
AcDbEntity
  8
0
100
AcDbLine
 62
2
  6
CONTINUOUS
 10
371.1097773301
 20
272.5650666834
 11
373.0619685652
 21
272.5650666834
  0
LINE
  5
258
100
AcDbEntity
  8
0
100
AcDbLine
 62
2
  6
CONTINUOUS
 10
371.1097773301
 20
272.7317333501
 11
373.3397463429
 21
272.7317333501
  0
LINE
  5
259
100
AcDbEntity
  8
0
100
AcDbLine
 62
2
  6
CONTINUOUS
 10
371.1097773301
 20
272.8984000168
 11
373.6175241207
 21
272.8984000168
  0
LINE
  5
25A
100
AcDbEntity
  8
0
100
AcDbLine
 62
2
  6
CONTINUOUS
 10
371.1097773301
 20
273.0650666834
 11
373.8953018985
 21
273.0650666834
  0
LINE
  5
25B
100
AcDbEntity
  8
0
100
AcDbLine
 62
2
  6
CONTINUOUS
 10
371.1097773301
 20
273.2317333501
 11
374.1730796763
 21
273.2317333501
  0
LINE
  5
25C
100
AcDbEntity
  8
0
100
AcDbLine
 62
2
  6
CONTINUOUS
 10
371.1097773301
 20
273.3984000168
 11
374.450857454
 21
273.3984000168
  0
LINE
  5
25D
100
AcDbEntity
  8
0
100
AcDbLine
 62
2
  6
CONTINUOUS
 10
371.1097773301
 20
273.5650666834
 11
374.7286352318
 21
273.5650666834
  0
LINE
  5
25E
100
AcDbEntity
  8
0
100
AcDbLine
 62
2
  6
CONTINUOUS
 10
371.1097773301
 20
273.7317333501
 11
375.0064130096
 21
273.7317333501
  0
LINE
  5
25F
100
AcDbEntity
  8
0
100
AcDbLine
 62
2
  6
CONTINUOUS
 10
371.1097773301
 20
273.8984000168
 11
375.2686972061
 21
273.8984000168
  0
LINE
  5
260
100
AcDbEntity
  8
0
100
AcDbLine
 62
2
  6
CONTINUOUS
 10
371.1097773301
 20
274.0650666834
 11
374.9909194284
 21
274.0650666834
  0
LINE
  5
261
100
AcDbEntity
  8
0
100
AcDbLine
 62
2
  6
CONTINUOUS
 10
371.1097773301
 20
274.2317333501
 11
374.7131416506
 21
274.2317333501
  0
LINE
  5
262
100
AcDbEntity
  8
0
100
AcDbLine
 62
2
  6
CONTINUOUS
 10
371.1097773301
 20
274.3984000168
 11
374.4353638728
 21
274.3984000168
  0
LINE
  5
263
100
AcDbEntity
  8
0
100
AcDbLine
 62
2
  6
CONTINUOUS
 10
371.1097773301
 20
274.5650666834
 11
374.157586095
 21
274.5650666834
  0
LINE
  5
264
100
AcDbEntity
  8
0
100
AcDbLine
 62
2
  6
CONTINUOUS
 10
371.1097773301
 20
274.7317333501
 11
373.8798083173
 21
274.7317333501
  0
LINE
  5
265
100
AcDbEntity
  8
0
100
AcDbLine
 62
2
  6
CONTINUOUS
 10
371.1097773301
 20
274.8984000168
 11
373.6020305395
 21
274.8984000168
  0
LINE
  5
266
100
AcDbEntity
  8
0
100
AcDbLine
 62
2
  6
CONTINUOUS
 10
371.1097773301
 20
275.0650666834
 11
373.3242527617
 21
275.0650666834
  0
LINE
  5
267
100
AcDbEntity
  8
0
100
AcDbLine
 62
2
  6
CONTINUOUS
 10
371.1097773301
 20
275.2317333501
 11
373.0464749839
 21
275.2317333501
  0
LINE
  5
268
100
AcDbEntity
  8
0
100
AcDbLine
 62
2
  6
CONTINUOUS
 10
371.1097773301
 20
275.3984000168
 11
372.7686972061
 21
275.3984000168
  0
LINE
  5
269
100
AcDbEntity
  8
0
100
AcDbLine
 62
2
  6
CONTINUOUS
 10
371.1097773301
 20
275.5650666834
 11
372.4909194284
 21
275.5650666834
  0
LINE
  5
26A
100
AcDbEntity
  8
0
100
AcDbLine
 62
2
  6
CONTINUOUS
 10
371.1097773301
 20
275.7317333501
 11
372.2131416506
 21
275.7317333501
  0
LINE
  5
26B
100
AcDbEntity
  8
0
100
AcDbLine
 62
2
  6
CONTINUOUS
 10
371.1097773301
 20
275.8984000168
 11
371.9353638728
 21
275.8984000168
  0
LINE
  5
26C
100
AcDbEntity
  8
0
100
AcDbLine
 62
2
  6
CONTINUOUS
 10
371.1097773301
 20
276.0650666834
 11
371.657586095
 21
276.0650666834
  0
LINE
  5
26D
100
AcDbEntity
  8
0
100
AcDbLine
 62
2
  6
CONTINUOUS
 10
371.1097773301
 20
276.2317333501
 11
371.3798083173
 21
276.2317333501
  0
ENDBLK
  5
26E
100
AcDbEntity
  8
0
  6
BYBLOCK
 62
0
100
AcDbBlockEnd
  0
BLOCK
  5
26F
100
AcDbEntity
  8
0
100
AcDbBlockBegin
 62
2
  6
CONTINUOUS
  2
SYMBOL_47_BL2
 70
64
 10
479.2336753813
 20
401.9338413616
  3
SYMBOL_47_BL2
  1

  0
LINE
  5
270
100
AcDbEntity
  8
0
100
AcDbLine
 62
2
  6
CONTINUOUS
 10
452.5670155379
 20
407.7706628135
 11
452.5670155379
 21
396.1040000987
  0
LINE
  5
271
100
AcDbEntity
  8
0
100
AcDbLine
 62
2
  6
CONTINUOUS
 10
452.5670155379
 20
396.1040000987
 11
489.2336697844
 21
396.1040000987
  0
LINE
  5
272
100
AcDbEntity
  8
0
100
AcDbLine
 62
2
  6
CONTINUOUS
 10
497.8034791095
 20
396.0724216086
 11
497.8034791095
 21
407.7952611146
  0
LINE
  5
273
100
AcDbEntity
  8
0
100
AcDbLine
 62
2
  6
CONTINUOUS
 10
489.2336697844
 20
407.7706628135
 11
452.5670155379
 21
407.7706628135
  0
LINE
  5
274
100
AcDbEntity
  8
0
100
AcDbLine
 62
2
  6
CONTINUOUS
 10
464.2336782527
 20
407.7706628135
 11
464.2336782527
 21
396.1040000987
  0
LINE
  5
275
100
AcDbEntity
  8
0
100
AcDbLine
 62
2
  6
CONTINUOUS
 10
489.2336697844
 20
407.7706628135
 11
489.2336697844
 21
396.1040000987
  0
LINE
  5
276
100
AcDbEntity
  8
0
100
AcDbLine
 62
2
  6
CONTINUOUS
 10
489.2336697844
 20
407.7706628135
 11
505.8651315025
 21
407.7952611146
  0
LINE
  5
277
100
AcDbEntity
  8
0
100
AcDbLine
 62
2
  6
CONTINUOUS
 10
489.2137708829
 20
396.0372178864
 11
505.9003352247
 21
396.0724216086
  0
LINE
  5
278
100
AcDbEntity
  8
0
100
AcDbLine
 62
2
  6
CONTINUOUS
 10
505.8651315025
 20
396.1076253309
 11
505.8651315025
 21
407.8304648368
  0
TEXT
  5
279
100
AcDbEntity
  8
0
100
AcDbText
 62
5
  6
CONTINUOUS
 10
455.014579106
 20
400.2331500239
  7
TEXTSTYLE_2
 40
4.000000128
  1
h
 41
1.0
 72
0
100
AcDbText
  0
ENDBLK
  5
27A
100
AcDbEntity
  8
0
  6
BYBLOCK
 62
0
100
AcDbBlockEnd
  0
BLOCK
  5
27B
100
AcDbEntity
  8
0
100
AcDbBlockBegin
 62
2
  6
CONTINUOUS
  2
SYMBOL_38_BL1
 70
64
 10
485.4431106634
 20
374.258171922
  3
SYMBOL_38_BL1
  1

  0
LINE
  5
27C
100
AcDbEntity
  8
0
100
AcDbLine
 62
2
  6
CONTINUOUS
 10
487.9477587378
 20
363.8415052554
 11
482.9477587378
 21
363.8415052554
  0
LINE
  5
27D
100
AcDbEntity
  8
0
100
AcDbLine
 62
2
  6
CONTINUOUS
 10
479.6097773301
 20
384.6748385887
 11
491.2764439968
 21
384.6748385887
  0
LINE
  5
27E
100
AcDbEntity
  8
0
100
AcDbLine
 62
2
  6
CONTINUOUS
 10
491.2764439968
 20
384.6748385887
 11
491.2764439968
 21
373.008171922
  0
LINE
  5
27F
100
AcDbEntity
  8
0
100
AcDbLine
 62
2
  6
CONTINUOUS
 10
491.2764439968
 20
373.008171922
 11
479.6097773301
 21
373.008171922
  0
LINE
  5
280
100
AcDbEntity
  8
0
100
AcDbLine
 62
2
  6
CONTINUOUS
 10
479.6097773301
 20
373.008171922
 11
479.6097773301
 21
384.6748385887
  0
LINE
  5
281
100
AcDbEntity
  8
0
100
AcDbLine
 62
2
  6
CONTINUOUS
 10
482.9384625891
 20
363.8415052554
 11
485.4431106634
 21
368.008171922
  0
LINE
  5
282
100
AcDbEntity
  8
0
100
AcDbLine
 62
2
  6
CONTINUOUS
 10
485.4431106634
 20
368.008171922
 11
487.9384625891
 21
363.8415052554
  0
LINE
  5
283
100
AcDbEntity
  8
0
100
AcDbLine
 62
2
  6
CONTINUOUS
 10
485.4431106634
 20
368.008171922
 11
485.4431106634
 21
373.008171922
  0
LINE
  5
284
100
AcDbEntity
  8
0
100
AcDbLine
 62
2
  6
CONTINUOUS
 10
483.1097773301
 20
363.8415052554
 11
483.1097773301
 21
364.1264999531
  0
LINE
  5
285
100
AcDbEntity
  8
0
100
AcDbLine
 62
2
  6
CONTINUOUS
 10
483.2764439968
 20
363.8415052554
 11
483.2764439968
 21
364.4037622366
  0
LINE
  5
286
100
AcDbEntity
  8
0
100
AcDbLine
 62
2
  6
CONTINUOUS
 10
483.4431106634
 20
363.8415052554
 11
483.4431106634
 21
364.6810245201
  0
LINE
  5
287
100
AcDbEntity
  8
0
100
AcDbLine
 62
2
  6
CONTINUOUS
 10
483.6097773301
 20
363.8415052554
 11
483.6097773301
 21
364.9582868036
  0
LINE
  5
288
100
AcDbEntity
  8
0
100
AcDbLine
 62
2
  6
CONTINUOUS
 10
483.7764439968
 20
363.8415052554
 11
483.7764439968
 21
365.2355490871
  0
LINE
  5
289
100
AcDbEntity
  8
0
100
AcDbLine
 62
2
  6
CONTINUOUS
 10
483.9431106634
 20
363.8415052554
 11
483.9431106634
 21
365.5128113706
  0
LINE
  5
28A
100
AcDbEntity
  8
0
100
AcDbLine
 62
2
  6
CONTINUOUS
 10
484.1097773301
 20
363.8415052554
 11
484.1097773301
 21
365.7900736541
  0
LINE
  5
28B
100
AcDbEntity
  8
0
100
AcDbLine
 62
2
  6
CONTINUOUS
 10
484.2764439968
 20
363.8415052554
 11
484.2764439968
 21
366.0673359376
  0
LINE
  5
28C
100
AcDbEntity
  8
0
100
AcDbLine
 62
2
  6
CONTINUOUS
 10
484.4431106634
 20
363.8415052554
 11
484.4431106634
 21
366.3445982211
  0
LINE
  5
28D
100
AcDbEntity
  8
0
100
AcDbLine
 62
2
  6
CONTINUOUS
 10
484.6097773301
 20
363.8415052554
 11
484.6097773301
 21
366.6218605046
  0
LINE
  5
28E
100
AcDbEntity
  8
0
100
AcDbLine
 62
2
  6
CONTINUOUS
 10
484.7764439968
 20
363.8415052554
 11
484.7764439968
 21
366.8991227881
  0
LINE
  5
28F
100
AcDbEntity
  8
0
100
AcDbLine
 62
2
  6
CONTINUOUS
 10
484.9431106634
 20
363.8415052554
 11
484.9431106634
 21
367.1763850715
  0
LINE
  5
290
100
AcDbEntity
  8
0
100
AcDbLine
 62
2
  6
CONTINUOUS
 10
485.1097773301
 20
363.8415052554
 11
485.1097773301
 21
367.453647355
  0
LINE
  5
291
100
AcDbEntity
  8
0
100
AcDbLine
 62
2
  6
CONTINUOUS
 10
485.2764439968
 20
363.8415052554
 11
485.2764439968
 21
367.7309096385
  0
LINE
  5
292
100
AcDbEntity
  8
0
100
AcDbLine
 62
2
  6
CONTINUOUS
 10
485.4431106634
 20
363.8415052554
 11
485.4431106634
 21
368.008171922
  0
LINE
  5
293
100
AcDbEntity
  8
0
100
AcDbLine
 62
2
  6
CONTINUOUS
 10
485.6097773301
 20
363.8415052554
 11
485.6097773301
 21
367.7298767295
  0
LINE
  5
294
100
AcDbEntity
  8
0
100
AcDbLine
 62
2
  6
CONTINUOUS
 10
485.7764439968
 20
363.8415052554
 11
485.7764439968
 21
367.4515815371
  0
LINE
  5
295
100
AcDbEntity
  8
0
100
AcDbLine
 62
2
  6
CONTINUOUS
 10
485.9431106634
 20
363.8415052554
 11
485.9431106634
 21
367.1732863446
  0
LINE
  5
296
100
AcDbEntity
  8
0
100
AcDbLine
 62
2
  6
CONTINUOUS
 10
486.1097773301
 20
363.8415052554
 11
486.1097773301
 21
366.8949911521
  0
LINE
  5
297
100
AcDbEntity
  8
0
100
AcDbLine
 62
2
  6
CONTINUOUS
 10
486.2764439968
 20
363.8415052554
 11
486.2764439968
 21
366.6166959596
  0
LINE
  5
298
100
AcDbEntity
  8
0
100
AcDbLine
 62
2
  6
CONTINUOUS
 10
486.4431106634
 20
363.8415052554
 11
486.4431106634
 21
366.3384007672
  0
LINE
  5
299
100
AcDbEntity
  8
0
100
AcDbLine
 62
2
  6
CONTINUOUS
 10
486.6097773301
 20
363.8415052554
 11
486.6097773301
 21
366.0601055747
  0
LINE
  5
29A
100
AcDbEntity
  8
0
100
AcDbLine
 62
2
  6
CONTINUOUS
 10
486.7764439968
 20
363.8415052554
 11
486.7764439968
 21
365.7818103822
  0
LINE
  5
29B
100
AcDbEntity
  8
0
100
AcDbLine
 62
2
  6
CONTINUOUS
 10
486.9431106634
 20
363.8415052554
 11
486.9431106634
 21
365.5035151897
  0
LINE
  5
29C
100
AcDbEntity
  8
0
100
AcDbLine
 62
2
  6
CONTINUOUS
 10
487.1097773301
 20
363.8415052554
 11
487.1097773301
 21
365.2252199972
  0
LINE
  5
29D
100
AcDbEntity
  8
0
100
AcDbLine
 62
2
  6
CONTINUOUS
 10
487.2764439968
 20
363.8415052554
 11
487.2764439968
 21
364.9469248048
  0
LINE
  5
29E
100
AcDbEntity
  8
0
100
AcDbLine
 62
2
  6
CONTINUOUS
 10
487.4431106634
 20
363.8415052554
 11
487.4431106634
 21
364.6686296123
  0
LINE
  5
29F
100
AcDbEntity
  8
0
100
AcDbLine
 62
2
  6
CONTINUOUS
 10
487.6097773301
 20
363.8415052554
 11
487.6097773301
 21
364.3903344198
  0
LINE
  5
2A0
100
AcDbEntity
  8
0
100
AcDbLine
 62
2
  6
CONTINUOUS
 10
487.7764439968
 20
363.8415052554
 11
487.7764439968
 21
364.1120392273
  0
ENDBLK
  5
2A1
100
AcDbEntity
  8
0
  6
BYBLOCK
 62
0
100
AcDbBlockEnd
  0
BLOCK
  5
2A2
100
AcDbEntity
  8
0
100
AcDbBlockBegin
 62
2
  6
CONTINUOUS
  2
SYMBOL_64_BL0
 70
64
 10
457.1995664769
 20
263.4101873256
  3
SYMBOL_64_BL0
  1

  0
TEXT
  5
2A3
100
AcDbEntity
  8
0
100
AcDbText
 62
5
  6
CONTINUOUS
 10
446.0090902864
 20
260.9101873256
  7
TEXTSTYLE_2
 40
5.0
  1
n
 41
1.0
 72
0
100
AcDbText
  0
TEXT
  5
2A4
100
AcDbEntity
  8
0
100
AcDbText
 62
5
  6
CONTINUOUS
 10
452.6757569531
 20
260.9101873256
  7
STANDARD
 40
5.0
  1
    
 41
0.7857142857
 72
0
100
AcDbText
  0
TEXT
  5
2A5
100
AcDbEntity
  8
0
100
AcDbText
 62
5
  6
CONTINUOUS
 10
434.0328998103
 20
261.4101873256
  7
TEXTSTYLE_2
 40
4.0
  1
b
 41
1.0
 72
0
100
AcDbText
  0
LINE
  5
2A6
100
AcDbEntity
  8
0
100
AcDbLine
 62
2
  6
CONTINUOUS
 10
433.0328998103
 20
269.2435206589
 11
433.0328998103
 21
257.5768539923
  0
LINE
  5
2A7
100
AcDbEntity
  8
0
100
AcDbLine
 62
2
  6
CONTINUOUS
 10
433.0328998103
 20
257.5768539923
 11
469.6995664769
 21
257.5768539923
  0
LINE
  5
2A8
100
AcDbEntity
  8
0
100
AcDbLine
 62
2
  6
CONTINUOUS
 10
481.3662331436
 20
257.5768539923
 11
481.3662331436
 21
269.2435206589
  0
LINE
  5
2A9
100
AcDbEntity
  8
0
100
AcDbLine
 62
2
  6
CONTINUOUS
 10
469.6995664769
 20
269.2435206589
 11
433.0328998103
 21
269.2435206589
  0
LINE
  5
2AA
100
AcDbEntity
  8
0
100
AcDbLine
 62
2
  6
CONTINUOUS
 10
444.6995664769
 20
269.2435206589
 11
444.6995664769
 21
257.5768539923
  0
LINE
  5
2AB
100
AcDbEntity
  8
0
100
AcDbLine
 62
2
  6
CONTINUOUS
 10
469.6995664769
 20
269.2435206589
 11
469.6995664769
 21
257.5768539923
  0
LINE
  5
2AC
100
AcDbEntity
  8
0
100
AcDbLine
 62
2
  6
CONTINUOUS
 10
469.6995664769
 20
269.2435206589
 11
481.3662331436
 21
269.2435206589
  0
LINE
  5
2AD
100
AcDbEntity
  8
0
100
AcDbLine
 62
2
  6
CONTINUOUS
 10
469.6995664769
 20
257.5768539923
 11
481.3662331436
 21
257.5768539923
  0
ENDBLK
  5
2AE
100
AcDbEntity
  8
0
  6
BYBLOCK
 62
0
100
AcDbBlockEnd
  0
BLOCK
  5
2AF
100
AcDbEntity
  8
0
100
AcDbBlockBegin
  2
_FILLED
 70
64
 10
0.0
 20
0.0
  3
_FILLED
  1

  0
SOLID
  5
2B0
100
AcDbEntity
  8
0
  6
BYBLOCK
 62
0
100
AcDbTrace
 10
0.0
 20
0.0
 11
-1.0
 21
0.125
 12
-1.0
 22
-0.125
 13
-1.0
 23
-0.125
  0
ENDBLK
  5
2B1
100
AcDbEntity
  8
0
  6
BYBLOCK
 62
0
100
AcDbBlockEnd
  0
BLOCK
  5
2B2
100
AcDbEntity
  8
ZEICHNUNGSBEMASSUNGEN
100
AcDbBlockBegin
 62
2
  6
CONTINUOUS
  2
*D0
 70
65
 10
0.0
 20
0.0
  3
*D0
  1

  0
MTEXT
  5
2B3
100
AcDbEntity
  8
ZEICHNUNGSBEMASSUNGEN
100
AcDbMText
 62
5
  6
CONTINUOUS
  7
STANDARD
 71
2
 72
1
 10
334.3182308395
 20
424.0498385887
 30
0.0
 11
1.0
 21
0.0
 31
0.0
 44
0.9
  1
169.5
 40
4.1666666667
 41
14.2857142857
  0
LINE
  5
2B4
100
AcDbEntity
  8
ZEICHNUNGSBEMASSUNGEN
100
AcDbLine
 62
2
  6
CONTINUOUS
 10
427.1097773301
 20
339.008171922
 11
427.1097773301
 21
421.3415052554
  0
LINE
  5
2B5
100
AcDbEntity
  8
ZEICHNUNGSBEMASSUNGEN
100
AcDbLine
 62
2
  6
CONTINUOUS
 10
257.6097773301
 20
329.6647489678
 11
257.6097773301
 21
421.3415052554
  0
LINE
  5
2B6
100
AcDbEntity
  8
ZEICHNUNGSBEMASSUNGEN
100
AcDbLine
 62
2
  6
CONTINUOUS
 10
427.1097773301
 20
418.8415052554
 11
342.3597773301
 21
418.8415052554
  0
LINE
  5
2B7
100
AcDbEntity
  8
ZEICHNUNGSBEMASSUNGEN
100
AcDbLine
 62
2
  6
CONTINUOUS
 10
257.6097773301
 20
418.8415052554
 11
342.3597773301
 21
418.8415052554
  0
INSERT
  5
2B8
100
AcDbEntity
  8
ZEICHNUNGSBEMASSUNGEN
100
AcDbBlockReference
 62
2
  6
CONTINUOUS
  2
_FILLED
 10
427.1097773301
 20
418.8415052554
 41
5.8333333333
 42
5.8333333333
 43
5.8333333333
  0
INSERT
  5
2B9
100
AcDbEntity
  8
ZEICHNUNGSBEMASSUNGEN
100
AcDbBlockReference
 62
2
  6
CONTINUOUS
  2
_FILLED
 10
257.6097773301
 20
418.8415052554
 41
5.8333333333
 42
5.8333333333
 43
5.8333333333
 50
180.0
  0
ENDBLK
  5
2BA
100
AcDbEntity
  8
0
  6
BYBLOCK
 62
0
100
AcDbBlockEnd
  0
BLOCK
  5
2BB
100
AcDbEntity
  8
ZEICHNUNGSBEMASSUNGEN
100
AcDbBlockBegin
 62
2
  6
CONTINUOUS
  2
*D1
 70
65
 10
0.0
 20
0.0
  3
*D1
  1

  0
MTEXT
  5
2BC
100
AcDbEntity
  8
ZEICHNUNGSBEMASSUNGEN
100
AcDbMText
 62
5
  6
CONTINUOUS
  7
STANDARD
 71
2
 72
1
 10
338.8597773301
 20
407.383171922
 30
0.0
 11
1.0
 21
0.0
 31
0.0
 44
0.9
  1
64.5
 40
4.1666666667
 41
11.9047619048
  0
LINE
  5
2BD
100
AcDbEntity
  8
ZEICHNUNGSBEMASSUNGEN
100
AcDbLine
 62
2
  6
CONTINUOUS
 10
371.1097773301
 20
364.6748385887
 11
371.1097773301
 21
404.6748385887
  0
LINE
  5
2BE
100
AcDbEntity
  8
ZEICHNUNGSBEMASSUNGEN
100
AcDbLine
 62
2
  6
CONTINUOUS
 10
306.6097773301
 20
325.3208465288
 11
306.6097773301
 21
404.6748385887
  0
LINE
  5
2BF
100
AcDbEntity
  8
ZEICHNUNGSBEMASSUNGEN
100
AcDbLine
 62
2
  6
CONTINUOUS
 10
371.1097773301
 20
402.1748385887
 11
338.8597773301
 21
402.1748385887
  0
LINE
  5
2C0
100
AcDbEntity
  8
ZEICHNUNGSBEMASSUNGEN
100
AcDbLine
 62
2
  6
CONTINUOUS
 10
306.6097773301
 20
402.1748385887
 11
338.8597773301
 21
402.1748385887
  0
INSERT
  5
2C1
100
AcDbEntity
  8
ZEICHNUNGSBEMASSUNGEN
100
AcDbBlockReference
 62
2
  6
CONTINUOUS
  2
_FILLED
 10
371.1097773301
 20
402.1748385887
 41
5.8333333333
 42
5.8333333333
 43
5.8333333333
  0
INSERT
  5
2C2
100
AcDbEntity
  8
ZEICHNUNGSBEMASSUNGEN
100
AcDbBlockReference
 62
2
  6
CONTINUOUS
  2
_FILLED
 10
306.6097773301
 20
402.1748385887
 41
5.8333333333
 42
5.8333333333
 43
5.8333333333
 50
180.0
  0
ENDBLK
  5
2C3
100
AcDbEntity
  8
0
  6
BYBLOCK
 62
0
100
AcDbBlockEnd
  0
BLOCK
  5
2C4
100
AcDbEntity
  8
0
100
AcDbBlockBegin
 62
2
  6
CONTINUOUS
  2
*D2
 70
65
 10
0.0
 20
0.0
  3
*D2
  1

  0
MTEXT
  5
2C5
100
AcDbEntity
  8
0
100
AcDbMText
 62
5
  6
CONTINUOUS
  7
TEXTSTYLE_2
 71
2
 72
1
 10
97.3986522643
 20
409.0498385887
 30
0.0
 11
1.0
 21
0.0
 31
0.0
 44
0.9
  1
{\Fgdt;o}\Ftxt;80
 40
4.1666666667
 41
12.2767857143
  0
LINE
  5
2C6
100
AcDbEntity
  8
0
100
AcDbLine
 62
2
  6
CONTINUOUS
 10
57.3986522643
 20
360.7309971772
 11
57.3986522643
 21
406.3415052554
  0
LINE
  5
2C7
100
AcDbEntity
  8
0
100
AcDbLine
 62
2
  6
CONTINUOUS
 10
137.3986522643
 20
360.7309971772
 11
137.3986522643
 21
406.3415052554
  0
LINE
  5
2C8
100
AcDbEntity
  8
0
100
AcDbLine
 62
2
  6
CONTINUOUS
 10
57.3986522643
 20
403.8415052554
 11
97.3986522643
 21
403.8415052554
  0
LINE
  5
2C9
100
AcDbEntity
  8
0
100
AcDbLine
 62
2
  6
CONTINUOUS
 10
137.3986522643
 20
403.8415052554
 11
97.3986522643
 21
403.8415052554
  0
INSERT
  5
2CA
100
AcDbEntity
  8
0
100
AcDbBlockReference
 62
2
  6
CONTINUOUS
  2
_FILLED
 10
57.3986522643
 20
403.8415052554
 41
5.8333333333
 42
5.8333333333
 43
5.8333333333
 50
180.0
  0
INSERT
  5
2CB
100
AcDbEntity
  8
0
100
AcDbBlockReference
 62
2
  6
CONTINUOUS
  2
_FILLED
 10
137.3986522643
 20
403.8415052554
 41
5.8333333333
 42
5.8333333333
 43
5.8333333333
  0
ENDBLK
  5
2CC
100
AcDbEntity
  8
0
  6
BYBLOCK
 62
0
100
AcDbBlockEnd
  0
BLOCK
  5
2CD
100
AcDbEntity
  8
0
100
AcDbBlockBegin
 62
2
  6
CONTINUOUS
  2
*D3
 70
65
 10
0.0
 20
0.0
  3
*D3
  1

  0
MTEXT
  5
2CE
100
AcDbEntity
  8
0
100
AcDbMText
 62
5
  6
CONTINUOUS
  7
TEXTSTYLE_2
 71
1
 72
1
 10
149.4042188932
 20
284.4082674629
 30
0.0
 11
0.7086201029
 21
-0.7055902137
 31
0.0
 44
0.9
  1
{\Fgdt;n}\Ftxt;100
 40
4.1666666667
 41
14.4841269841
  0
LINE
  5
2CF
100
AcDbEntity
  8
0
100
AcDbLine
 62
2
  6
CONTINUOUS
 10
132.8296574118
 20
293.5619945694
 11
97.3986522643
 21
328.8415052554
  0
LINE
  5
2D0
100
AcDbEntity
  8
0
100
AcDbLine
 62
2
  6
CONTINUOUS
 10
97.3986522643
 20
328.8415052554
 11
155.993013418
 21
270.4976795057
  0
LINE
  5
2D1
100
AcDbEntity
  8
0
100
AcDbLine
 62
2
  6
CONTINUOUS
 10
61.9676471168
 20
364.1210159413
 11
97.3986522643
 21
328.8415052554
  0
INSERT
  5
2D2
100
AcDbEntity
  8
0
100
AcDbBlockReference
 62
2
  6
CONTINUOUS
  2
_FILLED
 10
132.8296574118
 20
293.5619945694
 41
5.8333333333
 42
5.8333333333
 43
5.8333333333
 50
315.1227537359
  0
INSERT
  5
2D3
100
AcDbEntity
  8
0
100
AcDbBlockReference
 62
2
  6
CONTINUOUS
  2
_FILLED
 10
61.9676471168
 20
364.1210159413
 41
5.8333333333
 42
5.8333333333
 43
5.8333333333
 50
135.1227537359
  0
ENDBLK
  5
2D4
100
AcDbEntity
  8
0
  6
BYBLOCK
 62
0
100
AcDbBlockEnd
  0
BLOCK
  5
2D5
100
AcDbEntity
  8
0
100
AcDbBlockBegin
 62
2
  6
CONTINUOUS
  2
*D4
 70
65
 10
0.0
 20
0.0
  3
*D4
  1

  0
MTEXT
  5
2D6
100
AcDbEntity
  8
0
100
AcDbMText
 62
5
  6
CONTINUOUS
  7
STANDARD
 71
3
 72
1
 10
363.4834787935
 20
390.7165052554
 30
0.0
 11
1.0
 21
0.0
 31
0.0
 44
0.9
  1
17.5
 40
4.1666666667
 41
11.0119047619
  0
LINE
  5
2D7
100
AcDbEntity
  8
0
100
AcDbLine
 62
2
  6
CONTINUOUS
 10
388.6097773301
 20
364.6748385887
 11
388.6097773301
 21
388.008171922
  0
LINE
  5
2D8
100
AcDbEntity
  8
0
100
AcDbLine
 62
2
  6
CONTINUOUS
 10
371.1097773301
 20
364.6748385887
 11
371.1097773301
 21
388.008171922
  0
LINE
  5
2D9
100
AcDbEntity
  8
0
100
AcDbLine
 62
2
  6
CONTINUOUS
 10
388.6097773301
 20
385.508171922
 11
398.6097773301
 21
385.508171922
  0
LINE
  5
2DA
100
AcDbEntity
  8
0
100
AcDbLine
 62
2
  6
CONTINUOUS
 10
398.6097773301
 20
385.508171922
 11
379.8597773301
 21
385.508171922
  0
LINE
  5
2DB
100
AcDbEntity
  8
0
100
AcDbLine
 62
2
  6
CONTINUOUS
 10
371.1097773301
 20
385.508171922
 11
352.4715740316
 21
385.508171922
  0
LINE
  5
2DC
100
AcDbEntity
  8
0
100
AcDbLine
 62
2
  6
CONTINUOUS
 10
352.4715740316
 20
385.508171922
 11
379.8597773301
 21
385.508171922
  0
INSERT
  5
2DD
100
AcDbEntity
  8
0
100
AcDbBlockReference
 62
2
  6
CONTINUOUS
  2
_FILLED
 10
388.6097773301
 20
385.508171922
 41
5.8333333333
 42
5.8333333333
 43
5.8333333333
 50
180.0
  0
INSERT
  5
2DE
100
AcDbEntity
  8
0
100
AcDbBlockReference
 62
2
  6
CONTINUOUS
  2
_FILLED
 10
371.1097773301
 20
385.508171922
 41
5.8333333333
 42
5.8333333333
 43
5.8333333333
  0
ENDBLK
  5
2DF
100
AcDbEntity
  8
0
  6
BYBLOCK
 62
0
100
AcDbBlockEnd
  0
BLOCK
  5
2E0
100
AcDbEntity
  8
0
100
AcDbBlockBegin
 62
2
  6
CONTINUOUS
  2
*D5
 70
65
 10
0.0
 20
0.0
  3
*D5
  1

  0
MTEXT
  5
2E1
100
AcDbEntity
  8
0
100
AcDbMText
 62
5
  6
CONTINUOUS
  7
TEXTSTYLE_2
 71
2
 72
1
 10
480.2347773301
 20
326.5143842789
 30
0.0
 11
0.0
 21
1.0
 31
0.0
 44
0.9
  1
{\Fgdt;n}\Ftxt;70
 40
4.1666666667
 41
12.1031746032
  0
LINE
  5
2E2
100
AcDbEntity
  8
0
100
AcDbLine
 62
2
  6
CONTINUOUS
 10
371.9431106634
 20
293.8415052554
 11
431.1455434959
 21
293.8415052554
  0
LINE
  5
2E3
100
AcDbEntity
  8
0
100
AcDbLine
 62
2
  6
CONTINUOUS
 10
473.7759122764
 20
293.8415052554
 11
487.9431106634
 21
293.8415052554
  0
LINE
  5
2E4
100
AcDbEntity
  8
0
100
AcDbLine
 62
2
  6
CONTINUOUS
 10
371.9431106634
 20
363.8415052554
 11
487.9431106634
 21
363.8415052554
  0
LINE
  5
2E5
100
AcDbEntity
  8
0
100
AcDbLine
 62
2
  6
CONTINUOUS
 10
485.4431106634
 20
293.8415052554
 11
485.4431106634
 21
328.8415052554
  0
LINE
  5
2E6
100
AcDbEntity
  8
0
100
AcDbLine
 62
2
  6
CONTINUOUS
 10
485.4431106634
 20
363.8415052554
 11
485.4431106634
 21
328.8415052554
  0
INSERT
  5
2E7
100
AcDbEntity
  8
0
100
AcDbBlockReference
 62
2
  6
CONTINUOUS
  2
_FILLED
 10
485.4431106634
 20
293.8415052554
 41
5.8333333333
 42
5.8333333333
 43
5.8333333333
 50
270.0
  0
INSERT
  5
2E8
100
AcDbEntity
  8
0
100
AcDbBlockReference
 62
2
  6
CONTINUOUS
  2
_FILLED
 10
485.4431106634
 20
363.8415052554
 41
5.8333333333
 42
5.8333333333
 43
5.8333333333
 50
90.0
  0
ENDBLK
  5
2E9
100
AcDbEntity
  8
0
  6
BYBLOCK
 62
0
100
AcDbBlockEnd
  0
BLOCK
  5
2EA
100
AcDbEntity
  8
0
100
AcDbBlockBegin
 62
2
  6
CONTINUOUS
  2
*D6
 70
65
 10
0.0
 20
0.0
  3
*D6
  1

  0
TEXT
  5
2EB
100
AcDbEntity
  8
0
100
AcDbText
 62
5
  6
CONTINUOUS
 10
466.6813582744
 20
320.7293966235
  7
TEXTSTYLE_2
 40
4.1666666667
  1
n
 50
89.906592694
 41
1.0
 72
1
 11
466.6858867864
 21
323.50717071
100
AcDbText
  0
TEXT
  5
2EC
100
AcDbEntity
  8
0
100
AcDbText
 62
5
  6
CONTINUOUS
 10
466.6904152984
 20
326.2849447964
  7
STANDARD
 40
4.1666666667
  1
40
 50
89.906592694
 41
0.7857142857
 72
1
 11
466.6957524732
 21
329.5587499697
100
AcDbText
  0
TEXT
  5
2ED
100
AcDbEntity
  8
0
100
AcDbText
 62
5
  6
CONTINUOUS
 10
464.2010929702
 20
332.8366308038
  7
TEXTSTYLE_3
 40
2.5
  1
 0
 50
89.906592694
 41
0.7857142857
 72
1
 11
464.2042952751
 21
334.8009139078
100
AcDbText
  0
TEXT
  5
2EE
100
AcDbEntity
  8
0
100
AcDbText
 62
5
  6
CONTINUOUS
 10
467.534421874
 20
332.8311965894
  7
TEXTSTYLE_3
 40
2.5
  1
-3
 50
89.906592694
 41
0.7142857143
 72
1
 11
467.5373330603
 21
334.6169085021
100
AcDbText
  0
LINE
  5
2EF
100
AcDbEntity
  8
0
100
AcDbLine
 62
2
  6
CONTINUOUS
 10
391.9431106634
 20
348.8360976114
 11
471.3103081713
 21
348.7067079298
  0
LINE
  5
2F0
100
AcDbEntity
  8
0
100
AcDbLine
 62
2
  6
CONTINUOUS
 10
391.9431106634
 20
308.8360444561
 11
433.1557970978
 21
308.7688567949
  0
LINE
  5
2F1
100
AcDbEntity
  8
0
100
AcDbLine
 62
2
  6
CONTINUOUS
 10
461.1846245139
 20
308.7231623371
 11
471.2450975988
 21
308.7067610851
  0
LINE
  5
2F2
100
AcDbEntity
  8
0
100
AcDbLine
 62
2
  6
CONTINUOUS
 10
468.8103114935
 20
348.7107835906
 11
468.7777062072
 21
328.7108101682
  0
LINE
  5
2F3
100
AcDbEntity
  8
0
100
AcDbLine
 62
2
  6
CONTINUOUS
 10
468.745100921
 20
308.7108367458
 11
468.7777062072
 21
328.7108101682
  0
INSERT
  5
2F4
100
AcDbEntity
  8
0
100
AcDbBlockReference
 62
2
  6
CONTINUOUS
  2
_FILLED
 10
468.8103114935
 20
348.7107835906
 41
5.8333333333
 42
5.8333333333
 43
5.8333333333
 50
89.906592694
  0
INSERT
  5
2F5
100
AcDbEntity
  8
0
100
AcDbBlockReference
 62
2
  6
CONTINUOUS
  2
_FILLED
 10
468.745100921
 20
308.7108367458
 41
5.8333333333
 42
5.8333333333
 43
5.8333333333
 50
269.906592694
  0
ENDBLK
  5
2F6
100
AcDbEntity
  8
0
  6
BYBLOCK
 62
0
100
AcDbBlockEnd
  0
BLOCK
  5
2F7
100
AcDbEntity
  8
0
100
AcDbBlockBegin
 62
2
  6
CONTINUOUS
  2
*D7
 70
65
 10
0.0
 20
0.0
  3
*D7
  1

  0
MTEXT
  5
2F8
100
AcDbEntity
  8
0
100
AcDbMText
 62
5
  6
CONTINUOUS
  7
STANDARD
 71
2
 72
1
 10
409.1097773301
 20
399.0498385887
 30
0.0
 11
1.0
 21
0.0
 31
0.0
 44
0.9
  1
36
 40
4.1666666667
 41
6.25
  0
LINE
  5
2F9
100
AcDbEntity
  8
0
100
AcDbLine
 62
2
  6
CONTINUOUS
 10
391.1097773301
 20
349.6748385887
 11
391.1097773301
 21
396.3415052554
  0
LINE
  5
2FA
100
AcDbEntity
  8
0
100
AcDbLine
 62
2
  6
CONTINUOUS
 10
427.1097773301
 20
339.008171922
 11
427.1097773301
 21
396.3415052554
  0
LINE
  5
2FB
100
AcDbEntity
  8
0
100
AcDbLine
 62
2
  6
CONTINUOUS
 10
391.1097773301
 20
393.8415052554
 11
409.1097773301
 21
393.8415052554
  0
LINE
  5
2FC
100
AcDbEntity
  8
0
100
AcDbLine
 62
2
  6
CONTINUOUS
 10
427.1097773301
 20
393.8415052554
 11
409.1097773301
 21
393.8415052554
  0
INSERT
  5
2FD
100
AcDbEntity
  8
0
100
AcDbBlockReference
 62
2
  6
CONTINUOUS
  2
_FILLED
 10
391.1097773301
 20
393.8415052554
 41
5.8333333333
 42
5.8333333333
 43
5.8333333333
 50
180.0
  0
INSERT
  5
2FE
100
AcDbEntity
  8
0
100
AcDbBlockReference
 62
2
  6
CONTINUOUS
  2
_FILLED
 10
427.1097773301
 20
393.8415052554
 41
5.8333333333
 42
5.8333333333
 43
5.8333333333
  0
ENDBLK
  5
2FF
100
AcDbEntity
  8
0
  6
BYBLOCK
 62
0
100
AcDbBlockEnd
  0
BLOCK
  5
300
100
AcDbEntity
  8
0
100
AcDbBlockBegin
 62
2
  6
CONTINUOUS
  2
*D8
 70
65
 10
0.0
 20
0.0
  3
*D8
  1

  0
MTEXT
  5
301
100
AcDbEntity
  8
0
100
AcDbMText
 62
5
  6
CONTINUOUS
  7
TEXTSTYLE_2
 71
3
 72
1
 10
446.9014439968
 20
299.508171922
 30
0.0
 11
0.0
 21
1.0
 31
0.0
 44
0.9
  1
{\Fgdt;n}\Ftxt;22
 40
4.1666666667
 41
12.1031746032
  0
LINE
  5
302
100
AcDbEntity
  8
0
100
AcDbLine
 62
2
  6
CONTINUOUS
 10
427.9431106634
 20
317.8415052554
 11
454.6097773301
 21
317.8415052554
  0
LINE
  5
303
100
AcDbEntity
  8
0
100
AcDbLine
 62
2
  6
CONTINUOUS
 10
427.9431106634
 20
339.8415052554
 11
454.6097773301
 21
339.8415052554
  0
LINE
  5
304
100
AcDbEntity
  8
0
100
AcDbLine
 62
2
  6
CONTINUOUS
 10
452.1097773301
 20
317.8415052554
 11
452.1097773301
 21
328.8415052554
  0
LINE
  5
305
100
AcDbEntity
  8
0
100
AcDbLine
 62
2
  6
CONTINUOUS
 10
452.1097773301
 20
328.8415052554
 11
452.1097773301
 21
287.4049973188
  0
LINE
  5
306
100
AcDbEntity
  8
0
100
AcDbLine
 62
2
  6
CONTINUOUS
 10
452.1097773301
 20
339.8415052554
 11
452.1097773301
 21
328.8415052554
  0
INSERT
  5
307
100
AcDbEntity
  8
0
100
AcDbBlockReference
 62
2
  6
CONTINUOUS
  2
_FILLED
 10
452.1097773301
 20
317.8415052554
 41
5.8333333333
 42
5.8333333333
 43
5.8333333333
 50
270.0
  0
INSERT
  5
308
100
AcDbEntity
  8
0
100
AcDbBlockReference
 62
2
  6
CONTINUOUS
  2
_FILLED
 10
452.1097773301
 20
339.8415052554
 41
5.8333333333
 42
5.8333333333
 43
5.8333333333
 50
90.0
  0
ENDBLK
  5
309
100
AcDbEntity
  8
0
  6
BYBLOCK
 62
0
100
AcDbBlockEnd
  0
BLOCK
  5
30A
100
AcDbEntity
  8
0
100
AcDbBlockBegin
 62
2
  6
CONTINUOUS
  2
*D9
 70
65
 10
0.0
 20
0.0
  3
*D9
  1

  0
MTEXT
  5
30B
100
AcDbEntity
  8
0
100
AcDbMText
 62
5
  6
CONTINUOUS
  7
STANDARD
 71
1
 72
1
 10
163.1216984161
 20
370.6101093436
 30
0.0
 11
0.7071067812
 21
-0.7071067812
 31
0.0
 44
0.9
  1
6.5
 40
4.1666666667
 41
8.630952381
  0
LINE
  5
30C
100
AcDbEntity
  8
0
100
AcDbLine
 62
2
  6
CONTINUOUS
 10
132.0097223906
 20
358.856381304
 11
151.5274935575
 21
378.3741524708
  0
LINE
  5
30D
100
AcDbEntity
  8
0
100
AcDbLine
 62
2
  6
CONTINUOUS
 10
127.5606000611
 20
363.5996471299
 11
146.9312994798
 21
382.9703465485
  0
LINE
  5
30E
100
AcDbEntity
  8
0
100
AcDbLine
 62
2
  6
CONTINUOUS
 10
149.7597266045
 20
376.6063855178
 11
165.5418555541
 21
360.8242565682
  0
LINE
  5
30F
100
AcDbEntity
  8
0
100
AcDbLine
 62
2
  6
CONTINUOUS
 10
165.5418555541
 20
360.8242565682
 11
147.4616295657
 21
378.9044825567
  0
LINE
  5
310
100
AcDbEntity
  8
0
100
AcDbLine
 62
2
  6
CONTINUOUS
 10
145.1635325268
 20
381.2025795956
 11
138.0924647149
 21
388.2736474074
  0
LINE
  5
311
100
AcDbEntity
  8
0
100
AcDbLine
 62
2
  6
CONTINUOUS
 10
138.0924647149
 20
388.2736474074
 11
147.4616295657
 21
378.9044825567
  0
INSERT
  5
312
100
AcDbEntity
  8
0
100
AcDbBlockReference
 62
2
  6
CONTINUOUS
  2
_FILLED
 10
149.7597266045
 20
376.6063855178
 41
5.8333333333
 42
5.8333333333
 43
5.8333333333
 50
135.0
  0
INSERT
  5
313
100
AcDbEntity
  8
0
100
AcDbBlockReference
 62
2
  6
CONTINUOUS
  2
_FILLED
 10
145.1635325268
 20
381.2025795956
 41
5.8333333333
 42
5.8333333333
 43
5.8333333333
 50
315.0
  0
ENDBLK
  5
314
100
AcDbEntity
  8
0
  6
BYBLOCK
 62
0
100
AcDbBlockEnd
  0
BLOCK
  5
315
100
AcDbEntity
  8
ZEICHNUNGSBEMASSUNGEN
100
AcDbBlockBegin
 62
2
  6
CONTINUOUS
  2
*D10
 70
65
 10
0.0
 20
0.0
  3
*D10
  1

  0
MTEXT
  5
316
100
AcDbEntity
  8
ZEICHNUNGSBEMASSUNGEN
100
AcDbMText
 62
5
  6
CONTINUOUS
  7
STANDARD
 71
2
 72
1
 10
399.1097773301
 20
407.383171922
 30
0.0
 11
1.0
 21
0.0
 31
0.0
 44
0.9
  1
56
 40
4.1666666667
 41
6.25
  0
LINE
  5
317
100
AcDbEntity
  8
ZEICHNUNGSBEMASSUNGEN
100
AcDbLine
 62
2
  6
CONTINUOUS
 10
427.1097773301
 20
339.008171922
 11
427.1097773301
 21
404.6748385887
  0
LINE
  5
318
100
AcDbEntity
  8
ZEICHNUNGSBEMASSUNGEN
100
AcDbLine
 62
2
  6
CONTINUOUS
 10
371.1097773301
 20
364.6748385887
 11
371.1097773301
 21
404.6748385887
  0
LINE
  5
319
100
AcDbEntity
  8
ZEICHNUNGSBEMASSUNGEN
100
AcDbLine
 62
2
  6
CONTINUOUS
 10
427.1097773301
 20
402.1748385887
 11
399.1097773301
 21
402.1748385887
  0
LINE
  5
31A
100
AcDbEntity
  8
ZEICHNUNGSBEMASSUNGEN
100
AcDbLine
 62
2
  6
CONTINUOUS
 10
371.1097773301
 20
402.1748385887
 11
399.1097773301
 21
402.1748385887
  0
INSERT
  5
31B
100
AcDbEntity
  8
ZEICHNUNGSBEMASSUNGEN
100
AcDbBlockReference
 62
2
  6
CONTINUOUS
  2
_FILLED
 10
427.1097773301
 20
402.1748385887
 41
5.8333333333
 42
5.8333333333
 43
5.8333333333
  0
INSERT
  5
31C
100
AcDbEntity
  8
ZEICHNUNGSBEMASSUNGEN
100
AcDbBlockReference
 62
2
  6
CONTINUOUS
  2
_FILLED
 10
371.1097773301
 20
402.1748385887
 41
5.8333333333
 42
5.8333333333
 43
5.8333333333
 50
180.0
  0
ENDBLK
  5
31D
100
AcDbEntity
  8
0
  6
BYBLOCK
 62
0
100
AcDbBlockEnd
  0
BLOCK
  5
31E
100
AcDbEntity
  8
ZEICHNUNGSBEMASSUNGEN
100
AcDbBlockBegin
 62
2
  6
CONTINUOUS
  2
*D11
 70
65
 10
0.0
 20
0.0
  3
*D11
  1

  0
MTEXT
  5
31F
100
AcDbEntity
  8
ZEICHNUNGSBEMASSUNGEN
100
AcDbMText
 62
5
  6
CONTINUOUS
  7
STANDARD
 71
2
 72
1
 10
392.0954666126
 20
290.5705492791
 30
0.0
 11
0.3259882263
 21
0.9453738289
 31
0.0
 44
0.9
  1
5\Fgdt;{\Fgdt;~}
 40
4.1666666667
 41
5.753968254
  0
LINE
  5
320
100
AcDbEntity
  8
ZEICHNUNGSBEMASSUNGEN
100
AcDbLine
 62
2
  6
CONTINUOUS
 10
385.1097770212
 20
293.8415052554
 11
405.5602506237
 21
293.8415052554
  0
LINE
  5
321
100
AcDbEntity
  8
ZEICHNUNGSBEMASSUNGEN
100
AcDbLine
 62
2
  6
CONTINUOUS
 10
391.1002628654
 20
294.5843404495
 11
405.4729165942
 21
295.841784203
  0
ARC
  5
322
100
AcDbEntity
  8
ZEICHNUNGSBEMASSUNGEN
100
AcDbCircle
 62
2
  6
CONTINUOUS
 10
382.6096142839
 20
293.8415052554
 40
20.4506363398
100
AcDbArc
 50
340.9745428751
 51
360.0
  0
ARC
  5
323
100
AcDbEntity
  8
ZEICHNUNGSBEMASSUNGEN
100
AcDbCircle
 62
2
  6
CONTINUOUS
 10
382.6096142839
 20
293.8415052554
 40
20.4506363398
100
AcDbArc
 50
4.9999979725
 51
33.0166222776
  0
ARC
  5
324
100
AcDbEntity
  8
ZEICHNUNGSBEMASSUNGEN
100
AcDbCircle
 62
2
  6
CONTINUOUS
 10
382.6096142839
 20
293.8415052554
 40
20.4506363398
100
AcDbArc
 50
0.0
 51
4.9999979725
  0
SOLID
  5
325
100
AcDbEntity
  8
ZEICHNUNGSBEMASSUNGEN
100
AcDbTrace
 62
2
  6
CONTINUOUS
 10
402.952882453
 20
287.9637562065
 11
403.0602506237
 21
293.8415052554
 12
401.5093555539
 22
288.1710391115
 13
401.5093555539
 23
288.1710391115
  0
SOLID
  5
326
100
AcDbEntity
  8
ZEICHNUNGSBEMASSUNGEN
100
AcDbTrace
 62
2
  6
CONTINUOUS
 10
400.9432229021
 20
301.1376139029
 11
402.9824298413
 21
295.6238949343
 12
402.3631908617
 22
301.4699196427
 13
402.3631908617
 23
301.4699196427
  0
ENDBLK
  5
327
100
AcDbEntity
  8
0
  6
BYBLOCK
 62
0
100
AcDbBlockEnd
  0
BLOCK
  5
328
100
AcDbEntity
  8
ZEICHNUNGSBEMASSUNGEN
100
AcDbBlockBegin
 62
2
  6
CONTINUOUS
  2
*D12
 70
65
 10
0.0
 20
0.0
  3
*D12
  1

  0
MTEXT
  5
329
100
AcDbEntity
  8
ZEICHNUNGSBEMASSUNGEN
100
AcDbMText
 62
5
  6
CONTINUOUS
  7
STANDARD
 71
3
 72
1
 10
354.4981319113
 20
269.0498385887
 30
0.0
 11
1.0
 21
0.0
 31
0.0
 44
0.9
  1
8
 40
4.1666666667
 41
3.2738095238
  0
LINE
  5
32A
100
AcDbEntity
  8
ZEICHNUNGSBEMASSUNGEN
100
AcDbLine
 62
2
  6
CONTINUOUS
 10
363.1097773301
 20
287.1748385887
 11
363.1097773301
 21
261.3415052554
  0
LINE
  5
32B
100
AcDbEntity
  8
ZEICHNUNGSBEMASSUNGEN
100
AcDbLine
 62
2
  6
CONTINUOUS
 10
371.1097773301
 20
287.1748385887
 11
371.1097773301
 21
261.3415052554
  0
LINE
  5
32C
100
AcDbEntity
  8
ZEICHNUNGSBEMASSUNGEN
100
AcDbLine
 62
2
  6
CONTINUOUS
 10
363.1097773301
 20
263.8415052554
 11
351.2243223875
 21
263.8415052554
  0
LINE
  5
32D
100
AcDbEntity
  8
ZEICHNUNGSBEMASSUNGEN
100
AcDbLine
 62
2
  6
CONTINUOUS
 10
351.2243223875
 20
263.8415052554
 11
367.1097773301
 21
263.8415052554
  0
LINE
  5
32E
100
AcDbEntity
  8
ZEICHNUNGSBEMASSUNGEN
100
AcDbLine
 62
2
  6
CONTINUOUS
 10
371.1097773301
 20
263.8415052554
 11
381.1097773301
 21
263.8415052554
  0
LINE
  5
32F
100
AcDbEntity
  8
ZEICHNUNGSBEMASSUNGEN
100
AcDbLine
 62
2
  6
CONTINUOUS
 10
381.1097773301
 20
263.8415052554
 11
367.1097773301
 21
263.8415052554
  0
INSERT
  5
330
100
AcDbEntity
  8
ZEICHNUNGSBEMASSUNGEN
100
AcDbBlockReference
 62
2
  6
CONTINUOUS
  2
_FILLED
 10
363.1097773301
 20
263.8415052554
 41
5.8333333333
 42
5.8333333333
 43
5.8333333333
  0
INSERT
  5
331
100
AcDbEntity
  8
ZEICHNUNGSBEMASSUNGEN
100
AcDbBlockReference
 62
2
  6
CONTINUOUS
  2
_FILLED
 10
371.1097773301
 20
263.8415052554
 41
5.8333333333
 42
5.8333333333
 43
5.8333333333
 50
180.0
  0
ENDBLK
  5
332
100
AcDbEntity
  8
0
  6
BYBLOCK
 62
0
100
AcDbBlockEnd
  0
BLOCK
  5
333
100
AcDbEntity
  8
0
100
AcDbBlockBegin
 62
2
  6
CONTINUOUS
  2
*D13
 70
65
 10
0.0
 20
0.0
  3
*D13
  1

  0
TEXT
  5
334
100
AcDbEntity
  8
0
100
AcDbText
 62
5
  6
CONTINUOUS
 10
156.810695979
 20
307.4664094101
  7
STANDARD
 40
4.1666666667
  1
 
 50
-21.6784097912
 41
0.7857142857
 72
0
100
AcDbText
  0
TEXT
  5
335
100
AcDbEntity
  8
0
100
AcDbText
 62
5
  6
CONTINUOUS
 10
159.8529549581
 20
306.2570752536
  7
TEXTSTYLE_2
 40
4.1666666667
  1
n
 50
-21.6784097912
 41
1.0
 72
0
100
AcDbText
  0
TEXT
  5
336
100
AcDbEntity
  8
0
100
AcDbText
 62
5
  6
CONTINUOUS
 10
165.015576256
 20
304.2048718365
  7
STANDARD
 40
4.1666666667
  1
85
 50
-21.6784097912
 41
0.75
 72
0
100
AcDbText
  0
TEXT
  5
337
100
AcDbEntity
  8
0
100
AcDbText
 62
5
  6
CONTINUOUS
 10
171.7470167539
 20
304.2193225763
  7
TEXTSTYLE_3
 40
2.5
  1
+0.3
 50
-21.6784097912
 41
0.6964285714
 72
0
100
AcDbText
  0
TEXT
  5
338
100
AcDbEntity
  8
0
100
AcDbText
 62
5
  6
CONTINUOUS
 10
170.5156947036
 20
301.1217497975
  7
TEXTSTYLE_3
 40
2.5
  1
-0.3
 50
-21.6784097912
 41
0.6964285714
 72
0
100
AcDbText
  0
LINE
  5
339
100
AcDbEntity
  8
0
100
AcDbLine
 62
2
  6
CONTINUOUS
 10
136.8927051933
 20
313.1421491144
 11
97.3986522643
 21
328.8415052554
  0
LINE
  5
33A
100
AcDbEntity
  8
0
100
AcDbLine
 62
2
  6
CONTINUOUS
 10
97.3986522643
 20
328.8415052554
 11
176.5256634903
 21
297.3875764362
  0
LINE
  5
33B
100
AcDbEntity
  8
0
100
AcDbLine
 62
2
  6
CONTINUOUS
 10
57.9045993353
 20
344.5408613963
 11
97.3986522643
 21
328.8415052554
  0
INSERT
  5
33C
100
AcDbEntity
  8
0
100
AcDbBlockReference
 62
2
  6
CONTINUOUS
  2
_FILLED
 10
136.8927051933
 20
313.1421491144
 41
5.8333333333
 42
5.8333333333
 43
5.8333333333
 50
338.3215902088
  0
INSERT
  5
33D
100
AcDbEntity
  8
0
100
AcDbBlockReference
 62
2
  6
CONTINUOUS
  2
_FILLED
 10
57.9045993353
 20
344.5408613963
 41
5.8333333333
 42
5.8333333333
 43
5.8333333333
 50
158.3215902088
  0
ENDBLK
  5
33E
100
AcDbEntity
  8
0
  6
BYBLOCK
 62
0
100
AcDbBlockEnd
  0
BLOCK
  5
33F
100
AcDbEntity
  8
ZEICHNUNGSBEMASSUNGEN
100
AcDbBlockBegin
 62
2
  6
CONTINUOUS
  2
*D14
 70
65
 10
0.0
 20
0.0
  3
*D14
  1

  0
MTEXT
  5
340
100
AcDbEntity
  8
ZEICHNUNGSBEMASSUNGEN
100
AcDbMText
 62
5
  6
CONTINUOUS
  7
STANDARD
 71
3
 72
1
 10
361.5937443303
 20
382.383171922
 30
0.0
 11
1.0
 21
0.0
 31
0.0
 44
0.9
  1
11.5
 40
4.1666666667
 41
10.119047619
  0
LINE
  5
341
100
AcDbEntity
  8
ZEICHNUNGSBEMASSUNGEN
100
AcDbLine
 62
2
  6
CONTINUOUS
 10
371.1097773301
 20
364.6748385887
 11
371.1097773301
 21
379.6748385887
  0
LINE
  5
342
100
AcDbEntity
  8
ZEICHNUNGSBEMASSUNGEN
100
AcDbLine
 62
2
  6
CONTINUOUS
 10
382.6097450163
 20
364.6748385887
 11
382.6097450163
 21
379.6748385887
  0
LINE
  5
343
100
AcDbEntity
  8
ZEICHNUNGSBEMASSUNGEN
100
AcDbLine
 62
2
  6
CONTINUOUS
 10
371.1097773301
 20
377.1748385887
 11
351.4746967113
 21
377.1748385887
  0
LINE
  5
344
100
AcDbEntity
  8
ZEICHNUNGSBEMASSUNGEN
100
AcDbLine
 62
2
  6
CONTINUOUS
 10
351.4746967113
 20
377.1748385887
 11
376.8597611732
 21
377.1748385887
  0
LINE
  5
345
100
AcDbEntity
  8
ZEICHNUNGSBEMASSUNGEN
100
AcDbLine
 62
2
  6
CONTINUOUS
 10
382.6097450163
 20
377.1748385887
 11
392.6097450163
 21
377.1748385887
  0
LINE
  5
346
100
AcDbEntity
  8
ZEICHNUNGSBEMASSUNGEN
100
AcDbLine
 62
2
  6
CONTINUOUS
 10
392.6097450163
 20
377.1748385887
 11
376.8597611732
 21
377.1748385887
  0
INSERT
  5
347
100
AcDbEntity
  8
ZEICHNUNGSBEMASSUNGEN
100
AcDbBlockReference
 62
2
  6
CONTINUOUS
  2
_FILLED
 10
371.1097773301
 20
377.1748385887
 41
5.8333333333
 42
5.8333333333
 43
5.8333333333
  0
INSERT
  5
348
100
AcDbEntity
  8
ZEICHNUNGSBEMASSUNGEN
100
AcDbBlockReference
 62
2
  6
CONTINUOUS
  2
_FILLED
 10
382.6097450163
 20
377.1748385887
 41
5.8333333333
 42
5.8333333333
 43
5.8333333333
 50
180.0
  0
ENDBLK
  5
349
100
AcDbEntity
  8
0
  6
BYBLOCK
 62
0
100
AcDbBlockEnd
  0
BLOCK
  5
34A
100
AcDbEntity
  8
0
100
AcDbBlockBegin
 62
2
  6
CONTINUOUS
  2
*D15
 70
65
 10
0.0
 20
0.0
  3
*D15
  1

  0
MTEXT
  5
34B
100
AcDbEntity
  8
0
100
AcDbMText
 62
5
  6
CONTINUOUS
  7
STANDARD
 71
2
 72
1
 10
275.3597773301
 20
385.7165052554
 30
0.0
 11
1.0
 21
0.0
 31
0.0
 44
0.9
  1
35.5
 40
4.1666666667
 41
11.3095238095
  0
LINE
  5
34C
100
AcDbEntity
  8
0
100
AcDbLine
 62
2
  6
CONTINUOUS
 10
293.1097773301
 20
374.6748385887
 11
293.1097773301
 21
383.008171922
  0
LINE
  5
34D
100
AcDbEntity
  8
0
100
AcDbLine
 62
2
  6
CONTINUOUS
 10
257.6097773301
 20
374.6748385887
 11
257.6097773301
 21
383.008171922
  0
LINE
  5
34E
100
AcDbEntity
  8
0
100
AcDbLine
 62
2
  6
CONTINUOUS
 10
293.1097773301
 20
380.508171922
 11
275.3597773301
 21
380.508171922
  0
LINE
  5
34F
100
AcDbEntity
  8
0
100
AcDbLine
 62
2
  6
CONTINUOUS
 10
257.6097773301
 20
380.508171922
 11
275.3597773301
 21
380.508171922
  0
INSERT
  5
350
100
AcDbEntity
  8
0
100
AcDbBlockReference
 62
2
  6
CONTINUOUS
  2
_FILLED
 10
293.1097773301
 20
380.508171922
 41
5.8333333333
 42
5.8333333333
 43
5.8333333333
  0
INSERT
  5
351
100
AcDbEntity
  8
0
100
AcDbBlockReference
 62
2
  6
CONTINUOUS
  2
_FILLED
 10
257.6097773301
 20
380.508171922
 41
5.8333333333
 42
5.8333333333
 43
5.8333333333
 50
180.0
  0
ENDBLK
  5
352
100
AcDbEntity
  8
0
  6
BYBLOCK
 62
0
100
AcDbBlockEnd
  0
BLOCK
  5
353
100
AcDbEntity
  8
0
100
AcDbBlockBegin
 62
2
  6
CONTINUOUS
  2
*D16
 70
65
 10
0.0
 20
0.0
  3
*D16
  1

  0
MTEXT
  5
354
100
AcDbEntity
  8
0
100
AcDbMText
 62
5
  6
CONTINUOUS
  7
TEXTSTYLE_2
 71
2
 72
1
 10
599.8386623186
 20
399.0498385887
 30
0.0
 11
1.0
 21
0.0
 31
0.0
 44
0.9
  1
{\Fgdt;o}\Ftxt;90
 40
4.1666666667
 41
12.2767857143
  0
LINE
  5
355
100
AcDbEntity
  8
0
100
AcDbLine
 62
2
  6
CONTINUOUS
 10
554.8386623186
 20
366.3372340636
 11
554.8386623186
 21
396.3415052554
  0
LINE
  5
356
100
AcDbEntity
  8
0
100
AcDbLine
 62
2
  6
CONTINUOUS
 10
644.8386623186
 20
366.293756288
 11
644.8386623186
 21
396.3415052554
  0
LINE
  5
357
100
AcDbEntity
  8
0
100
AcDbLine
 62
2
  6
CONTINUOUS
 10
554.8386623186
 20
393.8415052554
 11
599.8386623186
 21
393.8415052554
  0
LINE
  5
358
100
AcDbEntity
  8
0
100
AcDbLine
 62
2
  6
CONTINUOUS
 10
644.8386623186
 20
393.8415052554
 11
599.8386623186
 21
393.8415052554
  0
INSERT
  5
359
100
AcDbEntity
  8
0
100
AcDbBlockReference
 62
2
  6
CONTINUOUS
  2
_FILLED
 10
554.8386623186
 20
393.8415052554
 41
5.8333333333
 42
5.8333333333
 43
5.8333333333
 50
180.0
  0
INSERT
  5
35A
100
AcDbEntity
  8
0
100
AcDbBlockReference
 62
2
  6
CONTINUOUS
  2
_FILLED
 10
644.8386623186
 20
393.8415052554
 41
5.8333333333
 42
5.8333333333
 43
5.8333333333
  0
ENDBLK
  5
35B
100
AcDbEntity
  8
0
  6
BYBLOCK
 62
0
100
AcDbBlockEnd
  0
BLOCK
  5
35C
100
AcDbEntity
  8
0
100
AcDbBlockBegin
 62
2
  6
CONTINUOUS
  2
*D17
 70
65
 10
0.0
 20
0.0
  3
*D17
  1

  0
MTEXT
  5
35D
100
AcDbEntity
  8
0
100
AcDbMText
 62
5
  6
CONTINUOUS
  7
TEXTSTYLE_2
 71
3
 72
1
 10
546.0323962057
 20
289.5701105953
 30
0.0
 11
0.7591708963
 21
0.6508913505
 31
0.0
 44
0.9
  1
{\Fgdt;n}\Ftxt;115
 40
4.1666666667
 41
13.2936507937
  0
LINE
  5
35E
100
AcDbEntity
  8
0
100
AcDbLine
 62
2
  6
CONTINUOUS
 10
556.1863357805
 20
291.4152526002
 11
599.8386623186
 21
328.8415052554
  0
LINE
  5
35F
100
AcDbEntity
  8
0
100
AcDbLine
 62
2
  6
CONTINUOUS
 10
599.8386623186
 20
328.8415052554
 11
539.3303025347
 21
276.9633731918
  0
LINE
  5
360
100
AcDbEntity
  8
0
100
AcDbLine
 62
2
  6
CONTINUOUS
 10
643.4909888567
 20
366.2677579106
 11
599.8386623186
 21
328.8415052554
  0
INSERT
  5
361
100
AcDbEntity
  8
0
100
AcDbBlockReference
 62
2
  6
CONTINUOUS
  2
_FILLED
 10
556.1863357805
 20
291.4152526002
 41
5.8333333333
 42
5.8333333333
 43
5.8333333333
 50
220.6088396402
  0
INSERT
  5
362
100
AcDbEntity
  8
0
100
AcDbBlockReference
 62
2
  6
CONTINUOUS
  2
_FILLED
 10
643.4909888567
 20
366.2677579106
 41
5.8333333333
 42
5.8333333333
 43
5.8333333333
 50
40.6088396402
  0
ENDBLK
  5
363
100
AcDbEntity
  8
0
  6
BYBLOCK
 62
0
100
AcDbBlockEnd
  0
BLOCK
  5
364
100
AcDbEntity
  8
0
100
AcDbBlockBegin
 62
2
  6
CONTINUOUS
  2
*D18
 70
65
 10
0.0
 20
0.0
  3
*D18
  1

  0
MTEXT
  5
365
100
AcDbEntity
  8
0
100
AcDbMText
 62
5
  6
CONTINUOUS
  7
TEXTSTYLE_2
 71
1
 72
1
 10
649.6435709039
 20
268.6773659626
 30
0.0
 11
0.5848863915
 21
-0.8111152255
 31
0.0
 44
0.9
  1
{\Fgdt;n}\Ftxt;100
 40
4.1666666667
 41
14.4841269841
  0
LINE
  5
366
100
AcDbEntity
  8
0
100
AcDbLine
 62
2
  6
CONTINUOUS
 10
629.0829818916
 20
288.2857439789
 11
599.8386623186
 21
328.8415052554
  0
LINE
  5
367
100
AcDbEntity
  8
0
100
AcDbLine
 62
2
  6
CONTINUOUS
 10
599.8386623186
 20
328.8415052554
 11
653.8905812028
 21
253.8827867484
  0
LINE
  5
368
100
AcDbEntity
  8
0
100
AcDbLine
 62
2
  6
CONTINUOUS
 10
570.5943427456
 20
369.3972665318
 11
599.8386623186
 21
328.8415052554
  0
INSERT
  5
369
100
AcDbEntity
  8
0
100
AcDbBlockReference
 62
2
  6
CONTINUOUS
  2
_FILLED
 10
629.0829818916
 20
288.2857439789
 41
5.8333333333
 42
5.8333333333
 43
5.8333333333
 50
305.7949644951
  0
INSERT
  5
36A
100
AcDbEntity
  8
0
100
AcDbBlockReference
 62
2
  6
CONTINUOUS
  2
_FILLED
 10
570.5943427456
 20
369.3972665318
 41
5.8333333333
 42
5.8333333333
 43
5.8333333333
 50
125.7949644951
  0
ENDBLK
  5
36B
100
AcDbEntity
  8
0
  6
BYBLOCK
 62
0
100
AcDbBlockEnd
  0
BLOCK
  5
36C
100
AcDbEntity
  8
0
100
AcDbBlockBegin
 62
2
  6
CONTINUOUS
  2
*D19
 70
65
 10
0.0
 20
0.0
  3
*D19
  1

  0
MTEXT
  5
36D
100
AcDbEntity
  8
0
100
AcDbMText
 62
5
  6
CONTINUOUS
  7
STANDARD
 71
3
 72
1
 10
598.8298703413
 20
387.383171922
 30
0.0
 11
1.0
 21
0.0
 31
0.0
 44
0.9
  1
M6
 40
4.1666666667
 41
6.8452380952
  0
LINE
  5
36E
100
AcDbEntity
  8
0
100
AcDbLine
 62
2
  6
CONTINUOUS
 10
632.1939370888
 20
364.3130857675
 11
632.1827448932
 21
384.6931554829
  0
LINE
  5
36F
100
AcDbEntity
  8
0
100
AcDbLine
 62
2
  6
CONTINUOUS
 10
638.1939379433
 20
364.3131772964
 11
638.1827439884
 21
384.6964505238
  0
LINE
  5
370
100
AcDbEntity
  8
0
100
AcDbLine
 62
2
  6
CONTINUOUS
 10
632.1841178269
 20
382.1931558599
 11
591.9846322461
 21
382.1748385887
  0
LINE
  5
371
100
AcDbEntity
  8
0
100
AcDbLine
 62
2
  6
CONTINUOUS
 10
591.9846322461
 20
382.1748385887
 11
635.1841173745
 21
382.1948033803
  0
LINE
  5
372
100
AcDbEntity
  8
0
100
AcDbLine
 62
2
  6
CONTINUOUS
 10
638.1841169221
 20
382.1964509008
 11
648.1841154142
 21
382.2019426357
  0
LINE
  5
373
100
AcDbEntity
  8
0
100
AcDbLine
 62
2
  6
CONTINUOUS
 10
648.1841154142
 20
382.2019426357
 11
635.1841173745
 21
382.1948033803
  0
INSERT
  5
374
100
AcDbEntity
  8
0
100
AcDbBlockReference
 62
2
  6
CONTINUOUS
  2
_FILLED
 10
632.1841178269
 20
382.1931558599
 41
5.8333333333
 42
5.8333333333
 43
5.8333333333
 50
0.0261073554
  0
INSERT
  5
375
100
AcDbEntity
  8
0
100
AcDbBlockReference
 62
2
  6
CONTINUOUS
  2
_FILLED
 10
638.1841169221
 20
382.1964509008
 41
5.8333333333
 42
5.8333333333
 43
5.8333333333
 50
180.0314653246
  0
ENDBLK
  5
376
100
AcDbEntity
  8
0
  6
BYBLOCK
 62
0
100
AcDbBlockEnd
  0
BLOCK
  5
377
100
AcDbEntity
  8
0
100
AcDbBlockBegin
 62
2
  6
CONTINUOUS
  2
*D20
 70
65
 10
0.0
 20
0.0
  3
*D20
  1

  0
MTEXT
  5
378
100
AcDbEntity
  8
0
100
AcDbMText
 62
5
  6
CONTINUOUS
  7
TEXTSTYLE_2
 71
3
 72
1
 10
227.4014439968
 20
311.9171487424
 30
0.0
 11
0.0
 21
1.0
 31
0.0
 44
0.9
  1
{\Fgdt;n}\Ftxt;16
 40
4.1666666667
 41
11.2103174603
  0
LINE
  5
379
100
AcDbEntity
  8
0
100
AcDbLine
 62
2
  6
CONTINUOUS
 10
271.7764439968
 20
320.8415052554
 11
230.1097773301
 21
320.8415052554
  0
LINE
  5
37A
100
AcDbEntity
  8
0
100
AcDbLine
 62
2
  6
CONTINUOUS
 10
271.7764439968
 20
336.8415052554
 11
230.1097773301
 21
336.8415052554
  0
LINE
  5
37B
100
AcDbEntity
  8
0
100
AcDbLine
 62
2
  6
CONTINUOUS
 10
232.6097773301
 20
320.8415052554
 11
232.6097773301
 21
300.7068312821
  0
LINE
  5
37C
100
AcDbEntity
  8
0
100
AcDbLine
 62
2
  6
CONTINUOUS
 10
232.6097773301
 20
300.7068312821
 11
232.6097773301
 21
328.8415052554
  0
LINE
  5
37D
100
AcDbEntity
  8
0
100
AcDbLine
 62
2
  6
CONTINUOUS
 10
232.6097773301
 20
336.8415052554
 11
232.6097773301
 21
346.8415052554
  0
LINE
  5
37E
100
AcDbEntity
  8
0
100
AcDbLine
 62
2
  6
CONTINUOUS
 10
232.6097773301
 20
346.8415052554
 11
232.6097773301
 21
328.8415052554
  0
INSERT
  5
37F
100
AcDbEntity
  8
0
100
AcDbBlockReference
 62
2
  6
CONTINUOUS
  2
_FILLED
 10
232.6097773301
 20
320.8415052554
 41
5.8333333333
 42
5.8333333333
 43
5.8333333333
 50
90.0
  0
INSERT
  5
380
100
AcDbEntity
  8
0
100
AcDbBlockReference
 62
2
  6
CONTINUOUS
  2
_FILLED
 10
232.6097773301
 20
336.8415052554
 41
5.8333333333
 42
5.8333333333
 43
5.8333333333
 50
270.0
  0
ENDBLK
  5
381
100
AcDbEntity
  8
0
  6
BYBLOCK
 62
0
100
AcDbBlockEnd
  0
BLOCK
  5
382
100
AcDbEntity
  8
0
100
AcDbBlockBegin
 62
2
  6
CONTINUOUS
  2
*D21
 70
65
 10
0.0
 20
0.0
  3
*D21
  1

  0
MTEXT
  5
383
100
AcDbEntity
  8
0
100
AcDbMText
 62
5
  6
CONTINUOUS
  7
STANDARD
 71
2
 72
1
 10
282.1097773301
 20
407.383171922
 30
0.0
 11
1.0
 21
0.0
 31
0.0
 44
0.9
  1
49
 40
4.1666666667
 41
6.5476190476
  0
LINE
  5
384
100
AcDbEntity
  8
0
100
AcDbLine
 62
2
  6
CONTINUOUS
 10
257.6097773301
 20
374.6748385887
 11
257.6097773301
 21
404.6748385887
  0
LINE
  5
385
100
AcDbEntity
  8
0
100
AcDbLine
 62
2
  6
CONTINUOUS
 10
306.6097773301
 20
374.6748385887
 11
306.6097773301
 21
404.6748385887
  0
LINE
  5
386
100
AcDbEntity
  8
0
100
AcDbLine
 62
2
  6
CONTINUOUS
 10
257.6097773301
 20
402.1748385887
 11
282.1097773301
 21
402.1748385887
  0
LINE
  5
387
100
AcDbEntity
  8
0
100
AcDbLine
 62
2
  6
CONTINUOUS
 10
306.6097773301
 20
402.1748385887
 11
282.1097773301
 21
402.1748385887
  0
INSERT
  5
388
100
AcDbEntity
  8
0
100
AcDbBlockReference
 62
2
  6
CONTINUOUS
  2
_FILLED
 10
257.6097773301
 20
402.1748385887
 41
5.8333333333
 42
5.8333333333
 43
5.8333333333
 50
180.0
  0
INSERT
  5
389
100
AcDbEntity
  8
0
100
AcDbBlockReference
 62
2
  6
CONTINUOUS
  2
_FILLED
 10
306.6097773301
 20
402.1748385887
 41
5.8333333333
 42
5.8333333333
 43
5.8333333333
  0
ENDBLK
  5
38A
100
AcDbEntity
  8
0
  6
BYBLOCK
 62
0
100
AcDbBlockEnd
  0
BLOCK
  5
38B
100
AcDbEntity
  8
0
100
AcDbBlockBegin
 62
2
  6
CONTINUOUS
  2
*D22
 70
65
 10
0.0
 20
0.0
  3
*D22
  1

  0
MTEXT
  5
38C
100
AcDbEntity
  8
0
100
AcDbMText
 62
5
  6
CONTINUOUS
  7
STANDARD
 71
2
 72
1
 10
277.6097773301
 20
269.0498385887
 30
0.0
 11
1.0
 21
0.0
 31
0.0
 44
0.9
  1
40
 40
4.1666666667
 41
6.5476190476
  0
LINE
  5
38D
100
AcDbEntity
  8
0
100
AcDbLine
 62
2
  6
CONTINUOUS
 10
257.6097773301
 20
283.008171922
 11
257.6097773301
 21
261.3415052554
  0
LINE
  5
38E
100
AcDbEntity
  8
0
100
AcDbLine
 62
2
  6
CONTINUOUS
 10
297.6097773301
 20
320.2044901263
 11
297.6097773301
 21
261.3415052554
  0
LINE
  5
38F
100
AcDbEntity
  8
0
100
AcDbLine
 62
2
  6
CONTINUOUS
 10
257.6097773301
 20
263.8415052554
 11
277.6097773301
 21
263.8415052554
  0
LINE
  5
390
100
AcDbEntity
  8
0
100
AcDbLine
 62
2
  6
CONTINUOUS
 10
297.6097773301
 20
263.8415052554
 11
277.6097773301
 21
263.8415052554
  0
INSERT
  5
391
100
AcDbEntity
  8
0
100
AcDbBlockReference
 62
2
  6
CONTINUOUS
  2
_FILLED
 10
257.6097773301
 20
263.8415052554
 41
5.8333333333
 42
5.8333333333
 43
5.8333333333
 50
180.0
  0
INSERT
  5
392
100
AcDbEntity
  8
0
100
AcDbBlockReference
 62
2
  6
CONTINUOUS
  2
_FILLED
 10
297.6097773301
 20
263.8415052554
 41
5.8333333333
 42
5.8333333333
 43
5.8333333333
  0
ENDBLK
  5
393
100
AcDbEntity
  8
0
  6
BYBLOCK
 62
0
100
AcDbBlockEnd
  0
BLOCK
  5
394
100
AcDbEntity
  8
0
100
AcDbBlockBegin
 62
2
  6
CONTINUOUS
  2
*D23
 70
65
 10
0.0
 20
0.0
  3
*D23
  1

  0
MTEXT
  5
395
100
AcDbEntity
  8
0
100
AcDbMText
 62
5
  6
CONTINUOUS
  7
STANDARD
 71
3
 72
1
 10
245.1385369425
 20
280.7165052554
 30
0.0
 11
1.0
 21
0.0
 31
0.0
 44
0.9
  1
8
 40
4.1666666667
 41
3.2738095238
  0
LINE
  5
396
100
AcDbEntity
  8
0
100
AcDbLine
 62
2
  6
CONTINUOUS
 10
257.6097773301
 20
302.8415052554
 11
257.6097773301
 21
273.008171922
  0
LINE
  5
397
100
AcDbEntity
  8
0
100
AcDbLine
 62
2
  6
CONTINUOUS
 10
265.6097773301
 20
302.8415052554
 11
265.6097773301
 21
273.008171922
  0
LINE
  5
398
100
AcDbEntity
  8
0
100
AcDbLine
 62
2
  6
CONTINUOUS
 10
257.6097773301
 20
275.508171922
 11
241.8647274186
 21
275.508171922
  0
LINE
  5
399
100
AcDbEntity
  8
0
100
AcDbLine
 62
2
  6
CONTINUOUS
 10
241.8647274186
 20
275.508171922
 11
261.6097773301
 21
275.508171922
  0
LINE
  5
39A
100
AcDbEntity
  8
0
100
AcDbLine
 62
2
  6
CONTINUOUS
 10
265.6097773301
 20
275.508171922
 11
275.6097773301
 21
275.508171922
  0
LINE
  5
39B
100
AcDbEntity
  8
0
100
AcDbLine
 62
2
  6
CONTINUOUS
 10
275.6097773301
 20
275.508171922
 11
261.6097773301
 21
275.508171922
  0
INSERT
  5
39C
100
AcDbEntity
  8
0
100
AcDbBlockReference
 62
2
  6
CONTINUOUS
  2
_FILLED
 10
257.6097773301
 20
275.508171922
 41
5.8333333333
 42
5.8333333333
 43
5.8333333333
  0
INSERT
  5
39D
100
AcDbEntity
  8
0
100
AcDbBlockReference
 62
2
  6
CONTINUOUS
  2
_FILLED
 10
265.6097773301
 20
275.508171922
 41
5.8333333333
 42
5.8333333333
 43
5.8333333333
 50
180.0
  0
ENDBLK
  5
39E
100
AcDbEntity
  8
0
  6
BYBLOCK
 62
0
100
AcDbBlockEnd
  0
BLOCK
  5
39F
100
AcDbEntity
  8
0
100
AcDbBlockBegin
 62
2
  6
CONTINUOUS
  2
*D24
 70
65
 10
0.0
 20
0.0
  3
*D24
  1

  0
MTEXT
  5
3A0
100
AcDbEntity
  8
0
100
AcDbMText
 62
5
  6
CONTINUOUS
  7
TEXTSTYLE_2
 71
2
 72
1
 10
210.7347773301
 20
328.8415052554
 30
0.0
 11
0.0
 21
1.0
 31
0.0
 44
0.9
  1
{\Fgdt;n}\Ftxt;80
 40
4.1666666667
 41
12.1031746032
  0
LINE
  5
3A1
100
AcDbEntity
  8
0
100
AcDbLine
 62
2
  6
CONTINUOUS
 10
255.1097773301
 20
368.8415052554
 11
213.4431106634
 21
368.8415052554
  0
LINE
  5
3A2
100
AcDbEntity
  8
0
100
AcDbLine
 62
2
  6
CONTINUOUS
 10
255.1097773301
 20
288.8415052554
 11
213.4431106634
 21
288.8415052554
  0
LINE
  5
3A3
100
AcDbEntity
  8
0
100
AcDbLine
 62
2
  6
CONTINUOUS
 10
215.9431106634
 20
368.8415052554
 11
215.9431106634
 21
328.8415052554
  0
LINE
  5
3A4
100
AcDbEntity
  8
0
100
AcDbLine
 62
2
  6
CONTINUOUS
 10
215.9431106634
 20
288.8415052554
 11
215.9431106634
 21
328.8415052554
  0
INSERT
  5
3A5
100
AcDbEntity
  8
0
100
AcDbBlockReference
 62
2
  6
CONTINUOUS
  2
_FILLED
 10
215.9431106634
 20
368.8415052554
 41
5.8333333333
 42
5.8333333333
 43
5.8333333333
 50
90.0
  0
INSERT
  5
3A6
100
AcDbEntity
  8
0
100
AcDbBlockReference
 62
2
  6
CONTINUOUS
  2
_FILLED
 10
215.9431106634
 20
288.8415052554
 41
5.8333333333
 42
5.8333333333
 43
5.8333333333
 50
270.0
  0
ENDBLK
  5
3A7
100
AcDbEntity
  8
0
  6
BYBLOCK
 62
0
100
AcDbBlockEnd
  0
ENDSEC
  0
SECTION
  2
ENTITIES
  0
DIMENSION
  5
3A8
100
AcDbEntity
  8
ZEICHNUNGSBEMASSUNGEN
100
AcDbDimension
 62
2
  6
CONTINUOUS
  2
*D0
 10
257.6097773301
 20
418.8415052554
 11
327.1753736967
 21
421.9665052554
 70
160
 71
2
 42
169.5
  3
DIMSTYLE_1
100
AcDbAlignedDimension
 13
427.1097773301
 23
339.008171922
 14
257.6097773301
 24
329.6647489678
 50
180.0
100
AcDbRotatedDimension
  0
DIMENSION
  5
3A9
100
AcDbEntity
  8
ZEICHNUNGSBEMASSUNGEN
100
AcDbDimension
 62
2
  6
CONTINUOUS
  2
*D1
 10
306.6097773301
 20
402.1748385887
 11
332.9073963777
 21
405.2998385887
 70
160
 71
2
 42
64.5
  3
DIMSTYLE_2
100
AcDbAlignedDimension
 13
371.1097773301
 23
364.6748385887
 14
306.6097773301
 24
325.3208465288
 50
180.0
100
AcDbRotatedDimension
  0
DIMENSION
  5
3AA
100
AcDbEntity
  8
0
100
AcDbDimension
 62
2
  6
CONTINUOUS
  2
*D2
 10
137.3986522643
 20
403.8415052554
 11
94.3294558357
 21
406.9665052554
 70
160
 71
2
 42
80.0
  1
{\Fgdt;o}<>
  3
DIMSTYLE_3
100
AcDbAlignedDimension
 13
57.3986522643
 23
360.7309971772
 14
137.3986522643
 24
360.7309971772
100
AcDbRotatedDimension
  0
DIMENSION
  5
3AB
100
AcDbEntity
  8
0
100
AcDbDimension
 62
2
  6
CONTINUOUS
  2
*D3
 10
132.8296574118
 20
293.5619945694
 11
153.0661110586
 21
277.8220464546
 70
163
 71
1
 42
100.0
  1
<>
  3
DIMSTYLE_4
100
AcDbDiametricDimension
 15
61.9676471168
 25
364.1210159413
  0
DIMENSION
  5
3AC
100
AcDbEntity
  8
0
100
AcDbDimension
 62
2
  6
CONTINUOUS
  2
*D4
 10
371.1097773301
 20
385.508171922
 11
346.9656216507
 21
388.633171922
 70
160
 71
3
 42
17.5
  3
DIMSTYLE_5
100
AcDbAlignedDimension
 13
388.6097773301
 23
364.6748385887
 14
371.1097773301
 24
364.6748385887
 50
180.0
100
AcDbRotatedDimension
  0
DIMENSION
  5
3AD
100
AcDbEntity
  8
0
100
AcDbDimension
 62
2
  6
CONTINUOUS
  2
*D5
 10
485.4431106634
 20
363.8415052554
 11
483.6738889662
 21
323.8093348503
 70
160
 71
2
 42
70.0
  1
%%c<>
  3
DIMSTYLE_6
100
AcDbAlignedDimension
 13
371.9431106634
 23
293.8415052554
 14
371.9431106634
 24
363.8415052554
 50
90.0
100
AcDbRotatedDimension
  0
LEADER
  5
3AE
100
AcDbEntity
  8
0
100
AcDbLeader
 62
2
  6
CONTINUOUS
  3
STANDARD
 71
1
 72
0
 73
2
 75
0
 76
3
 10
485.4431106634
 20
293.8415052554
 30
0.0
 10
485.4431106634
 20
263.8415052554
 30
0.0
 10
481.3662331436
 20
263.8415052554
 30
0.0
340
3AF
1001
ACAD
1000
DSTYLE
1002
{
1070
77
1070
0
1002
}
  0
INSERT
  5
3AF
102
{ACAD_REACTORS
330
3AE
102
}
100
AcDbEntity
  8
0
100
AcDbBlockReference
 62
2
  6
CONTINUOUS
  2
SYMBOL_64_BL0
 10
457.1995664769
 20
263.4101873256
  0
INSERT
  5
3B0
100
AcDbEntity
  8
0
100
AcDbBlockReference
 62
2
  6
CONTINUOUS
  2
SYMBOL_38_BL1
 10
485.4431106634
 20
374.258171922
  0
DIMENSION
  5
3B1
100
AcDbEntity
  8
0
100
AcDbDimension
 62
2
  6
CONTINUOUS
  2
*D6
 10
468.745100921
 20
308.7108367458
 11
465.3008000634
 21
326.5397891648
 70
160
 71
2
 42
40.0
  1
%%c<>
  3
DIMSTYLE_7
100
AcDbAlignedDimension
 13
391.9431106634
 23
348.8360976114
 14
391.9431106634
 24
308.8360444561
 50
269.906592694
100
AcDbRotatedDimension
  0
DIMENSION
  5
3B2
100
AcDbEntity
  8
0
100
AcDbDimension
 62
2
  6
CONTINUOUS
  2
*D7
 10
427.1097773301
 20
393.8415052554
 11
405.9847773301
 21
396.9665052554
 70
160
 71
2
 42
36.0
  3
DIMSTYLE_2
100
AcDbAlignedDimension
 13
391.1097773301
 23
349.6748385887
 14
427.1097773301
 24
339.008171922
100
AcDbRotatedDimension
  0
DIMENSION
  5
3B3
100
AcDbEntity
  8
0
100
AcDbDimension
 62
2
  6
CONTINUOUS
  2
*D8
 10
452.1097773301
 20
339.8415052554
 11
451.6963339356
 21
288.0464857633
 70
160
 71
3
 42
22.0
  1
%%c<>
  3
DIMSTYLE_8
100
AcDbAlignedDimension
 13
427.9431106634
 23
317.8415052554
 14
427.9431106634
 24
339.8415052554
 50
90.0
100
AcDbRotatedDimension
  0
LEADER
  5
3B4
100
AcDbEntity
  8
0
100
AcDbLeader
 62
2
  6
CONTINUOUS
  3
STANDARD
 71
1
 72
0
 73
2
 75
0
 76
3
 10
448.2047341349
 20
339.8415052554
 30
0.0
 10
448.2758015568
 20
402.1748385887
 30
0.0
 10
452.5670155379
 20
402.1748385887
 30
0.0
340
3B5
1001
ACAD
1000
DSTYLE
1002
{
1070
77
1070
0
1002
}
  0
INSERT
  5
3B5
102
{ACAD_REACTORS
330
3B4
102
}
100
AcDbEntity
  8
0
100
AcDbBlockReference
 62
2
  6
CONTINUOUS
  2
SYMBOL_47_BL2
 10
479.2336753813
 20
401.9338413616
  0
DIMENSION
  5
3B6
100
AcDbEntity
  8
0
100
AcDbDimension
 62
2
  6
CONTINUOUS
  2
*D9
 10
145.1635325268
 20
381.2025795956
 11
164.700061767
 21
366.0854677378
 70
160
 71
1
 42
6.5
  3
DIMSTYLE_9
100
AcDbAlignedDimension
 13
132.0097223906
 23
358.856381304
 14
127.5606000611
 24
363.5996471299
 50
135.0
100
AcDbRotatedDimension
  0
DIMENSION
  5
3B7
100
AcDbEntity
  8
ZEICHNUNGSBEMASSUNGEN
100
AcDbDimension
 62
2
  6
CONTINUOUS
  2
*D10
 10
371.1097773301
 20
402.1748385887
 11
395.9847773301
 21
405.2998385887
 70
160
 71
2
 42
56.0
  3
DIMSTYLE_2
100
AcDbAlignedDimension
 13
427.1097773301
 23
339.008171922
 14
371.1097773301
 24
364.6748385887
 50
180.0
100
AcDbRotatedDimension
  0
DIMENSION
  5
3B8
100
AcDbEntity
  8
ZEICHNUNGSBEMASSUNGEN
100
AcDbDimension
 62
2
  6
CONTINUOUS
  2
*D11
 10
405.4729165942
 20
295.841784203
 11
394.4745543932
 21
288.5124506999
 70
162
 71
2
 42
0.0872664272
  3
DIMSTYLE_10
100
AcDb2LineAngularDimension
 13
405.5602506237
 23
293.8415052554
 14
385.1097770212
 24
293.8415052554
 15
391.1002628654
 25
294.5843404495
 16
403.0407861652
 26
294.7335491222
  0
DIMENSION
  5
3B9
100
AcDbEntity
  8
ZEICHNUNGSBEMASSUNGEN
100
AcDbDimension
 62
2
  6
CONTINUOUS
  2
*D12
 10
371.1097773301
 20
263.8415052554
 11
349.5874176256
 21
266.9665052554
 70
160
 71
3
 42
8.0
  3
DIMSTYLE_5
100
AcDbAlignedDimension
 13
363.1097773301
 23
287.1748385887
 14
371.1097773301
 24
287.1748385887
100
AcDbRotatedDimension
  0
INSERT
  5
3BA
100
AcDbEntity
  8
0
100
AcDbBlockReference
 62
2
  6
CONTINUOUS
  2
SYMBOL_70_BL3
 10
381.5264439968
 20
273.8937519424
  0
DIMENSION
  5
3BB
100
AcDbEntity
  8
0
100
AcDbDimension
 62
2
  6
CONTINUOUS
  2
*D13
 10
136.8927051933
 20
313.1421491144
 11
169.4975889026
 21
304.3391037276
 70
163
 71
1
 42
85.0
  1
 <>
  3
DIMSTYLE_11
100
AcDbDiametricDimension
 15
57.9045993353
 25
344.5408613963
  0
DIMENSION
  5
3BC
100
AcDbEntity
  8
ZEICHNUNGSBEMASSUNGEN
100
AcDbDimension
 62
2
  6
CONTINUOUS
  2
*D14
 10
382.6097450163
 20
377.1748385887
 11
346.4151729018
 21
380.2998385887
 70
160
 71
3
 42
11.4999676862
  3
DIMSTYLE_5
100
AcDbAlignedDimension
 13
371.1097773301
 23
364.6748385887
 14
382.6097450163
 24
364.6748385887
100
AcDbRotatedDimension
  0
DIMENSION
  5
3BD
100
AcDbEntity
  8
0
100
AcDbDimension
 62
2
  6
CONTINUOUS
  2
*D15
 10
257.6097773301
 20
380.508171922
 11
269.7050154253
 21
383.633171922
 70
160
 71
2
 42
35.5
  3
DIMSTYLE_2
100
AcDbAlignedDimension
 13
293.1097773301
 23
374.6748385887
 14
257.6097773301
 24
374.6748385887
 50
180.0
100
AcDbRotatedDimension
  0
DIMENSION
  5
3BE
100
AcDbEntity
  8
0
100
AcDbDimension
 62
2
  6
CONTINUOUS
  2
*D16
 10
644.8386623186
 20
393.8415052554
 11
596.7694658901
 21
396.9665052554
 70
160
 71
2
 42
90.0
  1
{\Fgdt;o}<>
  3
DIMSTYLE_2
100
AcDbAlignedDimension
 13
554.8386623186
 23
366.3372340636
 14
644.8386623186
 24
366.293756288
100
AcDbRotatedDimension
  0
DIMENSION
  5
3BF
100
AcDbEntity
  8
0
100
AcDbDimension
 62
2
  6
CONTINUOUS
  2
*D17
 10
556.1863357805
 20
291.4152526002
 11
548.8112968621
 21
282.1347502903
 70
163
 71
3
 42
115.0
  1
<>
  3
DIMSTYLE_12
100
AcDbDiametricDimension
 15
643.4909888567
 25
366.2677579106
  0
DIMENSION
  5
3C0
100
AcDbEntity
  8
0
100
AcDbDimension
 62
2
  6
CONTINUOUS
  2
*D18
 10
629.0829818916
 20
288.2857439789
 11
652.1895319
 21
261.5847046844
 70
163
 71
1
 42
100.0
  1
<>
  3
DIMSTYLE_12
100
AcDbDiametricDimension
 15
570.5943427456
 25
369.3972665318
  0
DIMENSION
  5
3C1
100
AcDbEntity
  8
0
100
AcDbDimension
 62
2
  6
CONTINUOUS
  2
*D19
 10
638.1841169221
 20
382.1964509008
 11
591.9846322461
 21
385.2998385887
 70
160
 71
3
 42
6.0
  1
M<>
  3
DIMSTYLE_13
100
AcDbAlignedDimension
 13
632.1939370888
 23
364.3130857675
 14
638.1939379433
 24
364.3131772964
 50
0.0314653246
100
AcDbRotatedDimension
  0
DIMENSION
  5
3C2
100
AcDbEntity
  8
0
100
AcDbDimension
 62
2
  6
CONTINUOUS
  2
*D20
 10
232.6097773301
 20
336.8415052554
 11
231.9963010713
 21
301.3009968085
 70
160
 71
3
 42
16.0
  1
%%c<>
  3
DIMSTYLE_5
100
AcDbAlignedDimension
 13
271.7764439968
 23
320.8415052554
 14
271.7764439968
 24
336.8415052554
 50
90.0
100
AcDbRotatedDimension
  0
DIMENSION
  5
3C3
100
AcDbEntity
  8
0
100
AcDbDimension
 62
2
  6
CONTINUOUS
  2
*D21
 10
306.6097773301
 20
402.1748385887
 11
278.8359678063
 21
405.2998385887
 70
160
 71
2
 42
49.0
  3
DIMSTYLE_2
100
AcDbAlignedDimension
 13
257.6097773301
 23
374.6748385887
 14
306.6097773301
 24
374.6748385887
100
AcDbRotatedDimension
  0
DIMENSION
  5
3C4
100
AcDbEntity
  8
0
100
AcDbDimension
 62
2
  6
CONTINUOUS
  2
*D22
 10
297.6097773301
 20
263.8415052554
 11
274.3359678063
 21
266.9665052554
 70
160
 71
2
 42
40.0
  3
DIMSTYLE_2
100
AcDbAlignedDimension
 13
257.6097773301
 23
283.008171922
 14
297.6097773301
 24
320.2044901263
100
AcDbRotatedDimension
  0
DIMENSION
  5
3C5
100
AcDbEntity
  8
0
100
AcDbDimension
 62
2
  6
CONTINUOUS
  2
*D23
 10
265.6097773301
 20
275.508171922
 11
240.2278226567
 21
278.633171922
 70
160
 71
3
 42
8.0
  3
DIMSTYLE_5
100
AcDbAlignedDimension
 13
257.6097773301
 23
302.8415052554
 14
265.6097773301
 24
302.8415052554
100
AcDbRotatedDimension
  0
DIMENSION
  5
3C6
100
AcDbEntity
  8
0
100
AcDbDimension
 62
2
  6
CONTINUOUS
  2
*D24
 10
215.9431106634
 20
288.8415052554
 11
214.1738889662
 21
326.1364558268
 70
160
 71
2
 42
80.0
  1
%%c<>
  3
DIMSTYLE_2
100
AcDbAlignedDimension
 13
255.1097773301
 23
368.8415052554
 14
255.1097773301
 24
288.8415052554
 50
270.0
100
AcDbRotatedDimension
  0
LEADER
  5
3C7
100
AcDbEntity
  8
0
100
AcDbLeader
 62
2
  6
CONTINUOUS
  3
STANDARD
 71
1
 72
0
 73
0
 75
0
 40
4.1666666667
 41
17.8571428571
 76
3
 10
391.1097677249
 20
317.8415052554
 30
0.0
 10
432.7764439968
 20
277.1748385887
 30
0.0
 10
441.1097773301
 20
277.1748385887
 30
0.0
340
3C8
1001
ACAD
1000
DSTYLE
1002
{
1070
77
1070
0
1002
}
  0
MTEXT
  5
3C8
102
{ACAD_REACTORS
330
3C7
102
}
100
AcDbEntity
  8
0
100
AcDbMText
 62
5
  6
CONTINUOUS
  7
STANDARD
 71
1
 72
1
 10
441.1097773301
 20
279.258171922
 30
0.0
 11
1.0
 21
0.0
 31
0.0
 44
0.9
  1
max.R1
 40
4.1666666667
 41
17.8571428571
  0
MTEXT
  5
3C9
100
AcDbEntity
  8
0
100
AcDbMText
 62
5
  6
CONTINUOUS
  7
STANDARD
 71
1
 72
1
 10
446.8772127344
 20
302.1026237048
 30
0.0
 11
0.0
 21
1.0
 31
0.0
 44
0.9
  1
k6
 40
4.1666666667
 41
6.25
  0
MTEXT
  5
3CA
100
AcDbEntity
  8
0
100
AcDbMText
 62
5
  6
CONTINUOUS
  7
STANDARD
 71
1
 72
1
 10
479.7132463374
 20
338.0116328528
 30
0.0
 11
0.0
 21
1.0
 31
0.0
 44
0.9
  1
g7
 40
4.1666666667
 41
6.25
  0
MTEXT
  5
3CB
100
AcDbEntity
  8
0
100
AcDbMText
 62
5
  6
CONTINUOUS
  7
STANDARD
 71
1
 72
1
 10
470.6799812199
 20
403.8815513331
 30
0.0
 11
1.0
 21
0.0
 31
0.0
 44
0.9
  1
0,03
 40
4.1666666667
 41
11.9047619048
  0
MTEXT
  5
3CC
100
AcDbEntity
  8
0
100
AcDbMText
 62
5
  6
CONTINUOUS
  7
STANDARD
 71
1
 72
1
 10
453.0088054094
 20
265.4029689748
 30
0.0
 11
1.0
 21
0.0
 31
0.0
 44
0.9
  1
0,02
 40
4.1666666667
 41
12.2023809524
  0
MTEXT
  5
3CD
100
AcDbEntity
  8
0
100
AcDbMText
 62
5
  6
CONTINUOUS
  7
STANDARD
 71
1
 72
1
 10
491.6732778328
 20
403.9479664977
 30
0.0
 11
1.0
 21
0.0
 31
0.0
 44
0.9
  1
A
 40
4.1666666667
 41
4.3650793651
  0
MTEXT
  5
3CE
100
AcDbEntity
  8
0
100
AcDbMText
 62
5
  6
CONTINUOUS
  7
STANDARD
 71
1
 72
1
 10
500.0990219383
 20
404.0166522975
 30
0.0
 11
1.0
 21
0.0
 31
0.0
 44
0.9
  1
B
 40
4.1666666667
 41
4.0674603175
  0
MTEXT
  5
3CF
100
AcDbEntity
  8
0
100
AcDbMText
 62
5
  6
CONTINUOUS
  7
STANDARD
 71
1
 72
1
 10
473.3962577315
 20
265.5748801423
 30
0.0
 11
1.0
 21
0.0
 31
0.0
 44
0.9
  1
A
 40
4.1666666667
 41
4.3650793651
  0
MTEXT
  5
3D0
100
AcDbEntity
  8
0
100
AcDbMText
 62
5
  6
CONTINUOUS
  7
STANDARD
 71
1
 72
1
 10
483.6560882184
 20
380.8787376125
 30
0.0
 11
1.0
 21
0.0
 31
0.0
 44
0.9
  1
B
 40
4.1666666667
 41
4.0674603175
  0
MTEXT
  5
3D1
100
AcDbEntity
  8
0
100
AcDbMText
 62
5
  6
CONTINUOUS
  7
STANDARD
 71
1
 72
1
 10
384.0993533638
 20
275.7980383023
 30
0.0
 11
1.0
 21
0.0
 31
0.0
 44
0.9
  1
A
 40
4.1666666667
 41
4.3650793651
  0
MTEXT
  5
3D2
100
AcDbEntity
  8
0
100
AcDbMText
 62
5
  6
CONTINUOUS
  7
STANDARD
 71
1
 72
1
 10
226.1466903589
 20
338.8664579739
 30
0.0
 11
0.0
 21
1.0
 31
0.0
 44
0.9
  1
(for shaft diam. tol. j6/k6)
 40
4.1666666667
 41
77.380952381
  0
MTEXT
  5
3D3
100
AcDbEntity
  8
0
100
AcDbMText
 62
5
  6
CONTINUOUS
  7
STANDARD
 71
1
 72
1
 10
149.2645056323
 20
313.8343814492
 30
0.0
 11
0.9426414911
 21
-0.3338068592
 31
0.0
 44
0.9
  1
pcd.
 40
4.1666666667
 41
11.0119047619
  0
MTEXT
  5
3D4
100
AcDbEntity
  8
0
100
AcDbMText
 62
5
  6
CONTINUOUS
  7
TEXTSTYLE_2
 71
1
 72
1
 10
158.1273853877
 20
375.5131555137
 30
0.0
 11
0.7071067812
 21
-0.7071067812
 31
0.0
 44
0.9
  1
{\Fgdt;n}
 40
4.1666666667
 41
6.25
  0
MTEXT
  5
3D5
100
AcDbEntity
  8
0
100
AcDbMText
 62
5
  6
CONTINUOUS
  7
STANDARD
 71
1
 72
1
 10
643.6324623576
 20
277.128481296
 30
0.0
 11
0.5877852523
 21
-0.8090169944
 31
0.0
 44
0.9
  1
pcd.
 40
4.1666666667
 41
11.0119047619
  0
MTEXT
  5
3D6
100
AcDbEntity
  8
0
100
AcDbMText
 62
5
  6
CONTINUOUS
  7
STANDARD
 71
1
 72
1
 10
601.2609423395
 20
387.3558943547
 30
0.0
 11
1.0
 21
0.0
 31
0.0
 44
0.9
  1
x12 deep
 40
4.1666666667
 41
23.8095238095
  0
LINE
  5
3D7
100
AcDbEntity
  8
0
100
AcDbLine
 62
2
  6
CONTINUOUS
 10
7.9886872457
 20
486.7450659148
 11
7.9886872457
 21
8.3919031154
  0
LINE
  5
3D8
100
AcDbEntity
  8
0
100
AcDbLine
 62
2
  6
CONTINUOUS
 10
7.9886872457
 20
8.3919031154
 11
691.851346673
 21
8.3919031154
  0
LINE
  5
3D9
100
AcDbEntity
  8
0
100
AcDbLine
 62
2
  6
CONTINUOUS
 10
691.851346673
 20
486.7450659148
 11
7.9886872457
 21
486.7450659148
  0
LINE
  5
3DA
100
AcDbEntity
  8
0
100
AcDbLine
 62
2
  6
CONTINUOUS
 10
691.851346673
 20
8.3919031154
 11
691.851346673
 21
486.7450659148
  0
LINE
  5
3DB
100
AcDbEntity
  8
0
100
AcDbLine
 62
7
  6
CONTINUOUS
 10
257.6097773301
 20
373.8415052554
 11
257.6097773301
 21
283.8415052554
  0
LINE
  5
3DC
100
AcDbEntity
  8
AUSBLENDEN
100
AcDbLine
 62
2
  6
CENTER
 10
265.6097773301
 20
368.8415052554
 11
265.6097773301
 21
288.8415052554
  0
LINE
  5
3DD
100
AcDbEntity
  8
0
100
AcDbLine
 62
7
  6
CONTINUOUS
 10
275.9920858765
 20
316.6415052554
 11
275.9920858765
 21
313.0415052554
  0
LINE
  5
3DE
100
AcDbEntity
  8
BEZUGSACHSEN
100
AcDbLine
 62
2
  6
CENTER
 10
279.1097773301
 20
314.8415052554
 11
279.1097773301
 21
304.5915052554
  0
LINE
  5
3DF
100
AcDbEntity
  8
BEZUGSACHSEN
100
AcDbLine
 62
2
  6
CENTER
 10
279.1097773301
 20
314.8415052554
 11
279.1097773301
 21
320.6748540662
  0
LINE
  5
3E0
100
AcDbEntity
  8
BEZUGSACHSEN
100
AcDbLine
 62
2
  6
CENTER
 10
279.1097773301
 20
320.6748540662
 11
279.1097773301
 21
325.0915052554
  0
LINE
  5
3E1
100
AcDbEntity
  8
0
100
AcDbLine
 62
7
  6
CONTINUOUS
 10
282.2274687837
 20
313.0415052554
 11
282.2274687837
 21
316.6415052554
  0
LINE
  5
3E2
100
AcDbEntity
  8
0
100
AcDbLine
 62
7
  6
CONTINUOUS
 10
285.1097773301
 20
373.8415052554
 11
285.1097773301
 21
364.6360579135
  0
LINE
  5
3E3
100
AcDbEntity
  8
0
100
AcDbLine
 62
7
  6
CONTINUOUS
 10
285.1097773301
 20
293.0469525972
 11
285.1097773301
 21
283.8415052554
  0
LINE
  5
3E4
100
AcDbEntity
  8
0
100
AcDbLine
 62
7
  6
CONTINUOUS
 10
293.1097773301
 20
373.8415052554
 11
293.1097773301
 21
283.8415052554
  0
LINE
  5
3E5
100
AcDbEntity
  8
0
100
AcDbLine
 62
7
  6
CONTINUOUS
 10
275.9920858765
 20
313.0415052554
 11
279.1097773301
 21
311.2415052554
  0
LINE
  5
3E6
100
AcDbEntity
  8
ANSICHT_3D
100
AcDbLine
 62
2
  6
CENTER
 10
297.6097773301
 20
320.8767390943
 11
297.5097773301
 21
336.8415052554
  0
LINE
  5
3E7
100
AcDbEntity
  8
0
100
AcDbLine
 62
7
  6
CONTINUOUS
 10
257.6097773301
 20
283.8415052554
 11
306.6097773301
 21
283.8415052554
  0
LINE
  5
3E8
100
AcDbEntity
  8
0
100
AcDbLine
 62
7
  6
CONTINUOUS
 10
306.6097773301
 20
283.8915052554
 11
324.3597773301
 21
283.8915052554
  0
LINE
  5
3E9
100
AcDbEntity
  8
0
100
AcDbLine
 62
7
  6
CONTINUOUS
 10
371.1097773301
 20
288.8415052554
 11
363.1097773301
 21
288.8415052554
  0
LINE
  5
3EA
100
AcDbEntity
  8
AUSBLENDEN
100
AcDbLine
 62
2
  6
CENTER
 10
265.6097773301
 20
288.8415052554
 11
257.6097773301
 21
288.8415052554
  0
LINE
  5
3EB
100
AcDbEntity
  8
0
100
AcDbLine
 62
7
  6
CONTINUOUS
 10
328.3597773301
 20
290.2765052554
 11
339.3099751686
 21
290.2765052554
  0
LINE
  5
3EC
100
AcDbEntity
  8
0
100
AcDbLine
 62
7
  6
CONTINUOUS
 10
282.2274687837
 20
316.6415052554
 11
279.1097773301
 21
318.4415052554
  0
LINE
  5
3ED
100
AcDbEntity
  8
0
100
AcDbLine
 62
7
  6
CONTINUOUS
 10
306.6097773301
 20
283.8415052554
 11
306.6097773301
 21
373.8415052554
  0
LINE
  5
3EE
100
AcDbEntity
  8
FASEN
100
AcDbLine
 62
7
  6
CONTINUOUS
 10
388.6097761125
 20
294.3664511807
 11
382.609775785
 21
293.8415193849
  0
LINE
  5
3EF
100
AcDbEntity
  8
0
100
AcDbLine
 62
7
  6
CONTINUOUS
 10
343.6097773301
 20
291.8415052554
 11
358.6097773301
 21
291.8415052554
  0
LINE
  5
3F0
100
AcDbEntity
  8
0
100
AcDbLine
 62
7
  6
CONTINUOUS
 10
359.9088154358
 20
292.5915052554
 11
363.1097773301
 21
292.5915052554
  0
LINE
  5
3F1
100
AcDbEntity
  8
0
100
AcDbLine
 62
7
  6
CONTINUOUS
 10
285.1097773301
 20
293.0469525972
 11
257.6097773301
 21
293.0469525972
  0
LINE
  5
3F2
100
AcDbEntity
  8
0
100
AcDbLine
 62
7
  6
CONTINUOUS
 10
371.1097773301
 20
293.8415052554
 11
382.6097770212
 21
293.8415052554
  0
LINE
  5
3F3
100
AcDbEntity
  8
0
100
AcDbLine
 62
7
  6
CONTINUOUS
 10
371.1097773301
 20
298.8415052554
 11
363.1097773301
 21
298.8415052554
  0
LINE
  5
3F4
100
AcDbEntity
  8
0
100
AcDbLine
 62
7
  6
CONTINUOUS
 10
279.1097773301
 20
318.4415052554
 11
275.9920858765
 21
316.6415052554
  0
LINE
  5
3F5
100
AcDbEntity
  8
0
100
AcDbLine
 62
7
  6
CONTINUOUS
 10
388.6097773301
 20
308.8415052554
 11
391.1097773301
 21
308.8415052554
  0
LINE
  5
3F6
100
AcDbEntity
  8
0
100
AcDbLine
 62
7
  6
CONTINUOUS
 10
324.3597773301
 20
283.8915052554
 11
324.3597773301
 21
373.7915052554
  0
LINE
  5
3F7
100
AcDbEntity
  8
0
100
AcDbLine
 62
9
  6
CONTINUOUS
 10
328.3597773301
 20
290.2765052554
 11
328.3597773301
 21
367.4065052554
  0
LINE
  5
3F8
100
AcDbEntity
  8
0
100
AcDbLine
 62
7
  6
CONTINUOUS
 10
279.1097773301
 20
311.2415052554
 11
282.2274687837
 21
313.0415052554
  0
LINE
  5
3F9
100
AcDbEntity
  8
BEZUGSACHSEN
100
AcDbLine
 62
2
  6
CENTER
 10
279.1097773301
 20
314.8415052554
 11
273.9403101005
 21
314.8415052554
  0
LINE
  5
3FA
100
AcDbEntity
  8
BEZUGSACHSEN
100
AcDbLine
 62
2
  6
CENTER
 10
273.9403101005
 20
314.8415052554
 11
268.8597773301
 21
314.8415052554
  0
LINE
  5
3FB
100
AcDbEntity
  8
BEZUGSACHSEN
100
AcDbLine
 62
2
  6
CENTER
 10
279.1097773301
 20
314.8415052554
 11
289.3597773301
 21
314.8415052554
  0
LINE
  5
3FC
100
AcDbEntity
  8
0
100
AcDbLine
 62
7
  6
CONTINUOUS
 10
391.1097773301
 20
317.8415052554
 11
427.1097773301
 21
317.8415052554
  0
LINE
  5
3FD
100
AcDbEntity
  8
ANSICHT_3D
100
AcDbLine
 62
2
  6
CENTER
 10
272.6097773301
 20
320.8767390943
 11
297.6097773301
 21
320.8767390943
  0
LINE
  5
3FE
100
AcDbEntity
  8
0
100
AcDbLine
 62
7
  6
CONTINUOUS
 10
339.3099751686
 20
290.2765052554
 11
339.3099751686
 21
367.4065052554
  0
LINE
  5
3FF
100
AcDbEntity
  8
TEIL_STARTBEZUEGE
100
AcDbLine
 62
2
  6
CENTER
 10
430.4431106634
 20
328.8415052554
 11
254.2764439968
 21
328.8415052554
  0
LINE
  5
400
100
AcDbEntity
  8
0
100
AcDbLine
 62
7
  6
CONTINUOUS
 10
343.6097773301
 20
291.8415052554
 11
343.6097773301
 21
365.8415052554
  0
LINE
  5
401
100
AcDbEntity
  8
ANSICHT_3D
100
AcDbLine
 62
2
  6
CENTER
 10
297.5097773301
 20
336.8415052554
 11
272.6097773301
 21
336.8415052554
  0
LINE
  5
402
100
AcDbEntity
  8
0
100
AcDbLine
 62
7
  6
CONTINUOUS
 10
391.1097773301
 20
339.8415052554
 11
427.1097773301
 21
339.8415052554
  0
LINE
  5
403
100
AcDbEntity
  8
0
100
AcDbLine
 62
7
  6
CONTINUOUS
 10
358.6097773301
 20
291.8415052554
 11
358.6097773301
 21
365.8415052554
  0
LINE
  5
404
100
AcDbEntity
  8
0
100
AcDbLine
 62
7
  6
CONTINUOUS
 10
359.9088154358
 20
292.5915052554
 11
359.9088154358
 21
365.0915052554
  0
LINE
  5
405
100
AcDbEntity
  8
0
100
AcDbLine
 62
7
  6
CONTINUOUS
 10
388.6097773301
 20
348.8415052554
 11
391.1097773301
 21
348.8415052554
  0
LINE
  5
406
100
AcDbEntity
  8
0
100
AcDbLine
 62
7
  6
CONTINUOUS
 10
363.1097773301
 20
288.8415052554
 11
363.1097773301
 21
368.8415052554
  0
LINE
  5
407
100
AcDbEntity
  8
0
100
AcDbLine
 62
7
  6
CONTINUOUS
 10
371.1097773301
 20
288.8415052554
 11
371.1097773301
 21
368.8415052554
  0
LINE
  5
408
100
AcDbEntity
  8
0
100
AcDbLine
 62
7
  6
CONTINUOUS
 10
371.1097773301
 20
358.8415052554
 11
363.1097773301
 21
358.8415052554
  0
LINE
  5
409
100
AcDbEntity
  8
0
100
AcDbLine
 62
7
  6
CONTINUOUS
 10
358.6097773301
 20
291.8415052554
 11
359.9088154358
 21
292.5915052554
  0
LINE
  5
40A
100
AcDbEntity
  8
0
100
AcDbLine
 62
7
  6
CONTINUOUS
 10
339.3099751686
 20
290.2765052554
 11
343.6097773301
 21
291.8415052554
  0
LINE
  5
40B
100
AcDbEntity
  8
0
100
AcDbLine
 62
7
  6
CONTINUOUS
 10
371.1097773301
 20
363.8415052554
 11
382.6097770212
 21
363.8415052554
  0
LINE
  5
40C
100
AcDbEntity
  8
0
100
AcDbLine
 62
7
  6
CONTINUOUS
 10
285.1097773301
 20
364.6360579135
 11
257.6097773301
 21
364.6360579135
  0
LINE
  5
40D
100
AcDbEntity
  8
0
100
AcDbLine
 62
7
  6
CONTINUOUS
 10
359.9088154358
 20
365.0915052554
 11
363.1097773301
 21
365.0915052554
  0
LINE
  5
40E
100
AcDbEntity
  8
0
100
AcDbLine
 62
7
  6
CONTINUOUS
 10
343.6097773301
 20
365.8415052554
 11
358.6097773301
 21
365.8415052554
  0
LINE
  5
40F
100
AcDbEntity
  8
0
100
AcDbLine
 62
7
  6
CONTINUOUS
 10
328.3597773301
 20
367.4065052554
 11
339.3099751686
 21
367.4065052554
  0
LINE
  5
410
100
AcDbEntity
  8
0
100
AcDbLine
 62
7
  6
CONTINUOUS
 10
371.1097773301
 20
368.8415052554
 11
363.1097773301
 21
368.8415052554
  0
LINE
  5
411
100
AcDbEntity
  8
AUSBLENDEN
100
AcDbLine
 62
2
  6
CENTER
 10
257.6097773301
 20
368.8415052554
 11
265.6097773301
 21
368.8415052554
  0
LINE
  5
412
100
AcDbEntity
  8
FASEN
100
AcDbLine
 62
7
  6
CONTINUOUS
 10
388.6097761125
 20
363.31655933
 11
382.609775785
 21
363.8414911258
  0
LINE
  5
413
100
AcDbEntity
  8
0
100
AcDbLine
 62
7
  6
CONTINUOUS
 10
339.3099751686
 20
367.4065052554
 11
343.6097773301
 21
365.8415052554
  0
LINE
  5
414
100
AcDbEntity
  8
0
100
AcDbLine
 62
7
  6
CONTINUOUS
 10
358.6097773301
 20
365.8415052554
 11
359.9088154358
 21
365.0915052554
  0
LINE
  5
415
100
AcDbEntity
  8
FASEN
100
AcDbLine
 62
7
  6
CONTINUOUS
 10
382.6097770212
 20
363.8415052554
 11
382.6097770212
 21
293.8415052554
  0
LINE
  5
416
100
AcDbEntity
  8
FASEN
100
AcDbLine
 62
7
  6
CONTINUOUS
 10
388.6097773301
 20
363.3165732476
 11
388.6097773301
 21
294.3664372631
  0
LINE
  5
417
100
AcDbEntity
  8
0
100
AcDbLine
 62
7
  6
CONTINUOUS
 10
306.6097773301
 20
373.7915052554
 11
324.3597773301
 21
373.7915052554
  0
LINE
  5
418
100
AcDbEntity
  8
0
100
AcDbLine
 62
7
  6
CONTINUOUS
 10
257.6097773301
 20
373.8415052554
 11
306.6097773301
 21
373.8415052554
  0
LINE
  5
419
100
AcDbEntity
  8
0
100
AcDbLine
 62
7
  6
CONTINUOUS
 10
391.1097773301
 20
348.8415052554
 11
391.1097773301
 21
308.8415052554
  0
LINE
  5
41A
100
AcDbEntity
  8
0
100
AcDbLine
 62
7
  6
CONTINUOUS
 10
427.1097773301
 20
339.8412054276
 11
427.1097773301
 21
317.8418050831
  0
LINE
  5
41B
100
AcDbEntity
  8
0
100
AcDbLine
 62
7
  6
CONTINUOUS
 10
52.3986522643
 20
293.0469525972
 11
52.3986522643
 21
364.6360579135
  0
LINE
  5
41C
100
AcDbEntity
  8
0
100
AcDbLine
 62
7
  6
CONTINUOUS
 10
133.1932049225
 20
283.8415052554
 11
61.6040996061
 21
283.8415052554
  0
LINE
  5
41D
100
AcDbEntity
  8
0
100
AcDbLine
 62
7
  6
CONTINUOUS
 10
57.3986522643
 20
358.8415052554
 11
57.3986522643
 21
298.8415052554
  0
LINE
  5
41E
100
AcDbEntity
  8
0
100
AcDbLine
 62
7
  6
CONTINUOUS
 10
67.3986522643
 20
288.8415052554
 11
127.3986522643
 21
288.8415052554
  0
LINE
  5
41F
100
AcDbEntity
  8
TEIL_STARTBEZUEGE
100
AcDbLine
 62
2
  6
CENTER
 10
97.3986522643
 20
285.508171922
 11
97.3986522643
 21
372.1748385887
  0
LINE
  5
420
100
AcDbEntity
  8
0
100
AcDbLine
 62
7
  6
CONTINUOUS
 10
125.1879487649
 20
361.2269958337
 11
125.1525934259
 21
361.1916404946
  0
LINE
  5
421
100
AcDbEntity
  8
0
100
AcDbLine
 62
7
  6
CONTINUOUS
 10
65.048517025
 20
301.0875640938
 11
65.013161686
 21
301.0522087547
  0
LINE
  5
422
100
AcDbEntity
  8
TEIL_STARTBEZUEGE
100
AcDbLine
 62
2
  6
CENTER
 10
140.7319855976
 20
328.8415052554
 11
54.065318931
 21
328.8415052554
  0
LINE
  5
423
100
AcDbEntity
  8
0
100
AcDbLine
 62
7
  6
CONTINUOUS
 10
65.013161686
 20
356.630801756
 11
65.048517025
 21
356.5954464169
  0
LINE
  5
424
100
AcDbEntity
  8
0
100
AcDbLine
 62
7
  6
CONTINUOUS
 10
125.1525934259
 20
296.4913700161
 11
125.1879487649
 21
296.456014677
  0
LINE
  5
425
100
AcDbEntity
  8
0
100
AcDbLine
 62
7
  6
CONTINUOUS
 10
69.6093557637
 20
296.456014677
 11
69.6447111027
 21
296.4913700161
  0
LINE
  5
426
100
AcDbEntity
  8
0
100
AcDbLine
 62
7
  6
CONTINUOUS
 10
129.7487875036
 20
356.5954464169
 11
129.7841428427
 21
356.630801756
  0
LINE
  5
427
100
AcDbEntity
  8
0
100
AcDbLine
 62
7
  6
CONTINUOUS
 10
129.7841428427
 20
301.0522087547
 11
129.7487875036
 21
301.0875640938
  0
LINE
  5
428
100
AcDbEntity
  8
0
100
AcDbLine
 62
7
  6
CONTINUOUS
 10
69.6447111027
 20
361.1916404946
 11
69.6093557637
 21
361.2269958337
  0
LINE
  5
429
100
AcDbEntity
  8
0
100
AcDbLine
 62
7
  6
CONTINUOUS
 10
137.3986522643
 20
298.8415052554
 11
137.3986522643
 21
358.8415052554
  0
LINE
  5
42A
100
AcDbEntity
  8
0
100
AcDbLine
 62
7
  6
CONTINUOUS
 10
127.3986522643
 20
368.8415052554
 11
67.3986522643
 21
368.8415052554
  0
LINE
  5
42B
100
AcDbEntity
  8
0
100
AcDbLine
 62
7
  6
CONTINUOUS
 10
142.3986522643
 20
364.6360579135
 11
142.3986522643
 21
293.0469525972
  0
LINE
  5
42C
100
AcDbEntity
  8
0
100
AcDbLine
 62
7
  6
CONTINUOUS
 10
61.6040996061
 20
373.8415052554
 11
133.1932049225
 21
373.8415052554
  0
LINE
  5
42D
100
AcDbEntity
  8
0
100
AcDbLine
 62
7
  6
CONTINUOUS
 10
554.8386623186
 20
293.0469525972
 11
554.8386623186
 21
364.6360579135
  0
LINE
  5
42E
100
AcDbEntity
  8
0
100
AcDbLine
 62
7
  6
CONTINUOUS
 10
583.7659581593
 20
369.3744456208
 11
582.2677342107
 21
368.5094456208
  0
LINE
  5
42F
100
AcDbEntity
  8
0
100
AcDbLine
 62
7
  6
CONTINUOUS
 10
635.6332149768
 20
283.8415052554
 11
564.0441096604
 21
283.8415052554
  0
LINE
  5
430
100
AcDbEntity
  8
0
100
AcDbLine
 62
7
  6
CONTINUOUS
 10
559.3057219532
 20
312.768801096
 11
560.1707219532
 21
311.2705771475
  0
LINE
  5
431
100
AcDbEntity
  8
BEZUGSACHSEN
100
AcDbLine
 62
2
  6
CENTER
 10
561.0357219532
 20
312.768801096
 11
561.0357219532
 21
305.518801096
  0
LINE
  5
432
100
AcDbEntity
  8
BEZUGSACHSEN
100
AcDbLine
 62
2
  6
CENTER
 10
561.0357219532
 20
312.768801096
 11
561.0357219532
 21
320.018801096
  0
LINE
  5
433
100
AcDbEntity
  8
0
100
AcDbLine
 62
7
  6
CONTINUOUS
 10
583.7659581593
 20
365.9144456208
 11
585.2641821078
 21
366.7794456208
  0
LINE
  5
434
100
AcDbEntity
  8
BEZUGSACHSEN
100
AcDbLine
 62
2
  6
CENTER
 10
615.911366478
 20
290.0385648899
 11
608.661366478
 21
290.0385648899
  0
LINE
  5
435
100
AcDbEntity
  8
BEZUGSACHSEN
100
AcDbLine
 62
2
  6
CENTER
 10
615.911366478
 20
290.0385648899
 11
623.161366478
 21
290.0385648899
  0
LINE
  5
436
100
AcDbEntity
  8
0
100
AcDbLine
 62
7
  6
CONTINUOUS
 10
562.7657219532
 20
312.768801096
 11
561.9007219532
 21
314.2670250446
  0
LINE
  5
437
100
AcDbEntity
  8
BEZUGSACHSEN
100
AcDbLine
 62
2
  6
CENTER
 10
564.4833232593
 20
364.1968443147
 11
564.4833232593
 21
356.6968443147
  0
LINE
  5
438
100
AcDbEntity
  8
BEZUGSACHSEN
100
AcDbLine
 62
2
  6
CENTER
 10
564.4833232593
 20
293.486166196
 11
564.4833232593
 21
285.986166196
  0
LINE
  5
439
100
AcDbEntity
  8
BEZUGSACHSEN
100
AcDbLine
 62
2
  6
CENTER
 10
564.4833232593
 20
293.486166196
 11
564.4833232593
 21
300.986166196
  0
LINE
  5
43A
100
AcDbEntity
  8
BEZUGSACHSEN
100
AcDbLine
 62
2
  6
CENTER
 10
564.4833232593
 20
364.1968443147
 11
564.4833232593
 21
371.6968443147
  0
LINE
  5
43B
100
AcDbEntity
  8
BEZUGSACHSEN
100
AcDbLine
 62
2
  6
CENTER
 10
635.194001378
 20
293.486166196
 11
627.694001378
 21
293.486166196
  0
LINE
  5
43C
100
AcDbEntity
  8
BEZUGSACHSEN
100
AcDbLine
 62
2
  6
CENTER
 10
564.4833232593
 20
293.486166196
 11
556.9833232593
 21
293.486166196
  0
LINE
  5
43D
100
AcDbEntity
  8
BEZUGSACHSEN
100
AcDbLine
 62
2
  6
CENTER
 10
564.4833232593
 20
293.486166196
 11
571.9833232593
 21
293.486166196
  0
LINE
  5
43E
100
AcDbEntity
  8
BEZUGSACHSEN
100
AcDbLine
 62
2
  6
CENTER
 10
635.194001378
 20
293.486166196
 11
642.694001378
 21
293.486166196
  0
LINE
  5
43F
100
AcDbEntity
  8
0
100
AcDbLine
 62
7
  6
CONTINUOUS
 10
560.1707219532
 20
314.2670250446
 11
559.3057219532
 21
312.768801096
  0
LINE
  5
440
100
AcDbEntity
  8
0
100
AcDbLine
 62
7
  6
CONTINUOUS
 10
561.9007219532
 20
311.2705771475
 11
562.7657219532
 21
312.768801096
  0
LINE
  5
441
100
AcDbEntity
  8
0
100
AcDbLine
 62
7
  6
CONTINUOUS
 10
614.4131425294
 20
289.1735648899
 11
615.911366478
 21
288.3085648899
  0
LINE
  5
442
100
AcDbEntity
  8
0
100
AcDbLine
 62
7
  6
CONTINUOUS
 10
617.4095904265
 20
290.9035648899
 11
615.911366478
 21
291.7685648899
  0
LINE
  5
443
100
AcDbEntity
  8
BEZUGSACHSEN
100
AcDbLine
 62
7
  6
CONTINUOUS
 10
607.9268523152
 20
310.5915052554
 11
611.8386623186
 21
310.5915052554
  0
LINE
  5
444
100
AcDbEntity
  8
0
100
AcDbLine
 62
7
  6
CONTINUOUS
 10
582.2677342107
 20
368.5094456208
 11
582.2677342107
 21
366.7794456208
  0
LINE
  5
445
100
AcDbEntity
  8
BEZUGSACHSEN
100
AcDbLine
 62
2
  6
CENTER
 10
583.7659581593
 20
367.6444456208
 11
583.7659581593
 21
360.3944456208
  0
LINE
  5
446
100
AcDbEntity
  8
BEZUGSACHSEN
100
AcDbLine
 62
2
  6
CENTER
 10
583.7659581593
 20
367.6444456208
 11
583.7659581593
 21
374.8944456208
  0
LINE
  5
447
100
AcDbEntity
  8
0
100
AcDbLine
 62
7
  6
CONTINUOUS
 10
585.2641821078
 20
366.7794456208
 11
585.2641821078
 21
368.5094456208
  0
LINE
  5
448
100
AcDbEntity
  8
0
100
AcDbLine
 62
7
  6
CONTINUOUS
 10
560.1707219532
 20
311.2705771475
 11
561.9007219532
 21
311.2705771475
  0
LINE
  5
449
100
AcDbEntity
  8
BEZUGSACHSEN
100
AcDbLine
 62
2
  6
CENTER
 10
561.0357219532
 20
312.768801096
 11
553.7857219532
 21
312.768801096
  0
LINE
  5
44A
100
AcDbEntity
  8
BEZUGSACHSEN
100
AcDbLine
 62
2
  6
CENTER
 10
561.0357219532
 20
312.768801096
 11
568.2857219532
 21
312.768801096
  0
LINE
  5
44B
100
AcDbEntity
  8
0
100
AcDbLine
 62
7
  6
CONTINUOUS
 10
561.9007219532
 20
314.2670250446
 11
560.1707219532
 21
314.2670250446
  0
LINE
  5
44C
100
AcDbEntity
  8
0
100
AcDbLine
 62
7
  6
CONTINUOUS
 10
599.0886623186
 20
319.3711567929
 11
599.0886623186
 21
308.8555727027
  0
LINE
  5
44D
100
AcDbEntity
  8
0
100
AcDbLine
 62
7
  6
CONTINUOUS
 10
599.0886623186
 20
319.3962352751
 11
599.0886623186
 21
320.8767390943
  0
LINE
  5
44E
100
AcDbEntity
  8
TEIL_STARTBEZUEGE
100
AcDbLine
 62
2
  6
CENTER
 10
599.8386623186
 20
280.508171922
 11
599.8386623186
 21
377.1748385887
  0
LINE
  5
44F
100
AcDbEntity
  8
TEIL_STARTBEZUEGE
100
AcDbLine
 62
2
  6
CENTER
 10
551.5053289853
 20
328.8415052554
 11
648.171995652
 21
328.8415052554
  0
LINE
  5
450
100
AcDbEntity
  8
0
100
AcDbLine
 62
7
  6
CONTINUOUS
 10
600.5886623186
 20
320.8767390943
 11
600.5886623186
 21
319.3962352751
  0
LINE
  5
451
100
AcDbEntity
  8
0
100
AcDbLine
 62
7
  6
CONTINUOUS
 10
600.5886623186
 20
308.8555727027
 11
600.5886623186
 21
319.3711567929
  0
LINE
  5
452
100
AcDbEntity
  8
BEZUGSACHSEN
100
AcDbLine
 62
7
  6
CONTINUOUS
 10
611.8386623186
 20
312.9380982622
 11
611.8386623186
 21
310.5921634839
  0
LINE
  5
453
100
AcDbEntity
  8
0
100
AcDbLine
 62
7
  6
CONTINUOUS
 10
614.4131425294
 20
290.9035648899
 11
614.4131425294
 21
289.1735648899
  0
LINE
  5
454
100
AcDbEntity
  8
0
100
AcDbLine
 62
7
  6
CONTINUOUS
 10
637.7766026841
 20
343.4159854661
 11
639.5066026841
 21
343.4159854661
  0
LINE
  5
455
100
AcDbEntity
  8
BEZUGSACHSEN
100
AcDbLine
 62
2
  6
CENTER
 10
615.911366478
 20
290.0385648899
 11
615.911366478
 21
282.7885648899
  0
LINE
  5
456
100
AcDbEntity
  8
BEZUGSACHSEN
100
AcDbLine
 62
2
  6
CENTER
 10
615.911366478
 20
290.0385648899
 11
615.911366478
 21
297.2885648899
  0
LINE
  5
457
100
AcDbEntity
  8
0
100
AcDbLine
 62
7
  6
CONTINUOUS
 10
617.4095904265
 20
289.1735648899
 11
617.4095904265
 21
290.9035648899
  0
LINE
  5
458
100
AcDbEntity
  8
BEZUGSACHSEN
100
AcDbLine
 62
2
  6
CENTER
 10
638.6416026841
 20
344.9142094147
 11
631.3916026841
 21
344.9142094147
  0
LINE
  5
459
100
AcDbEntity
  8
BEZUGSACHSEN
100
AcDbLine
 62
2
  6
CENTER
 10
638.6416026841
 20
344.9142094147
 11
645.8916026841
 21
344.9142094147
  0
LINE
  5
45A
100
AcDbEntity
  8
0
100
AcDbLine
 62
7
  6
CONTINUOUS
 10
639.5066026841
 20
346.4124333632
 11
637.7766026841
 21
346.4124333632
  0
LINE
  5
45B
100
AcDbEntity
  8
0
100
AcDbLine
 62
7
  6
CONTINUOUS
 10
637.7766026841
 20
346.4124333632
 11
636.9116026841
 21
344.9142094147
  0
LINE
  5
45C
100
AcDbEntity
  8
0
100
AcDbLine
 62
7
  6
CONTINUOUS
 10
582.2677342107
 20
366.7794456208
 11
583.7659581593
 21
365.9144456208
  0
LINE
  5
45D
100
AcDbEntity
  8
0
100
AcDbLine
 62
7
  6
CONTINUOUS
 10
639.5066026841
 20
343.4159854661
 11
640.3716026841
 21
344.9142094147
  0
LINE
  5
45E
100
AcDbEntity
  8
0
100
AcDbLine
 62
7
  6
CONTINUOUS
 10
585.2641821078
 20
368.5094456208
 11
583.7659581593
 21
369.3744456208
  0
LINE
  5
45F
100
AcDbEntity
  8
BEZUGSACHSEN
100
AcDbLine
 62
2
  6
CENTER
 10
635.194001378
 20
364.1968443147
 11
635.194001378
 21
356.6968443147
  0
LINE
  5
460
100
AcDbEntity
  8
BEZUGSACHSEN
100
AcDbLine
 62
2
  6
CENTER
 10
635.194001378
 20
293.486166196
 11
635.194001378
 21
285.986166196
  0
LINE
  5
461
100
AcDbEntity
  8
BEZUGSACHSEN
100
AcDbLine
 62
2
  6
CENTER
 10
635.194001378
 20
293.486166196
 11
635.194001378
 21
300.986166196
  0
LINE
  5
462
100
AcDbEntity
  8
BEZUGSACHSEN
100
AcDbLine
 62
2
  6
CENTER
 10
635.194001378
 20
364.1968443147
 11
635.194001378
 21
371.6968443147
  0
LINE
  5
463
100
AcDbEntity
  8
BEZUGSACHSEN
100
AcDbLine
 62
2
  6
CENTER
 10
635.194001378
 20
364.1968443147
 11
627.694001378
 21
364.1968443147
  0
LINE
  5
464
100
AcDbEntity
  8
BEZUGSACHSEN
100
AcDbLine
 62
2
  6
CENTER
 10
564.4833232593
 20
364.1968443147
 11
556.9833232593
 21
364.1968443147
  0
LINE
  5
465
100
AcDbEntity
  8
BEZUGSACHSEN
100
AcDbLine
 62
2
  6
CENTER
 10
564.4833232593
 20
364.1968443147
 11
571.9833232593
 21
364.1968443147
  0
LINE
  5
466
100
AcDbEntity
  8
BEZUGSACHSEN
100
AcDbLine
 62
2
  6
CENTER
 10
635.194001378
 20
364.1968443147
 11
642.694001378
 21
364.1968443147
  0
LINE
  5
467
100
AcDbEntity
  8
BEZUGSACHSEN
100
AcDbLine
 62
2
  6
CENTER
 10
638.6416026841
 20
344.9142094147
 11
638.6416026841
 21
337.6642094147
  0
LINE
  5
468
100
AcDbEntity
  8
BEZUGSACHSEN
100
AcDbLine
 62
2
  6
CENTER
 10
638.6416026841
 20
344.9142094147
 11
638.6416026841
 21
352.1642094147
  0
LINE
  5
469
100
AcDbEntity
  8
0
100
AcDbLine
 62
7
  6
CONTINUOUS
 10
615.911366478
 20
291.7685648899
 11
614.4131425294
 21
290.9035648899
  0
LINE
  5
46A
100
AcDbEntity
  8
BEZUGSACHSEN
100
AcDbLine
 62
2
  6
CENTER
 10
583.7659581593
 20
367.6444456208
 11
576.5159581593
 21
367.6444456208
  0
LINE
  5
46B
100
AcDbEntity
  8
BEZUGSACHSEN
100
AcDbLine
 62
2
  6
CENTER
 10
583.7659581593
 20
367.6444456208
 11
591.0159581593
 21
367.6444456208
  0
LINE
  5
46C
100
AcDbEntity
  8
0
100
AcDbLine
 62
7
  6
CONTINUOUS
 10
636.9116026841
 20
344.9142094147
 11
637.7766026841
 21
343.4159854661
  0
LINE
  5
46D
100
AcDbEntity
  8
0
100
AcDbLine
 62
7
  6
CONTINUOUS
 10
644.8386623186
 20
364.6360579135
 11
644.8386623186
 21
293.0469525972
  0
LINE
  5
46E
100
AcDbEntity
  8
0
100
AcDbLine
 62
7
  6
CONTINUOUS
 10
615.911366478
 20
288.3085648899
 11
617.4095904265
 21
289.1735648899
  0
LINE
  5
46F
100
AcDbEntity
  8
0
100
AcDbLine
 62
7
  6
CONTINUOUS
 10
564.0441096604
 20
373.8415052554
 11
635.6332149768
 21
373.8415052554
  0
LINE
  5
470
100
AcDbEntity
  8
0
100
AcDbLine
 62
7
  6
CONTINUOUS
 10
640.3716026841
 20
344.9142094147
 11
639.5066026841
 21
346.4124333632
  0
CIRCLE
  5
471
100
AcDbEntity
  8
BEZUGSACHSEN
100
AcDbCircle
 62
7
  6
CONTINUOUS
 10
279.1097773301
 20
314.8415052554
 40
5.25
  0
ARC
  5
472
100
AcDbEntity
  8
0
100
AcDbCircle
 62
7
  6
CONTINUOUS
 10
328.3597773301
 20
286.2765052554
 40
4.0
100
AcDbArc
 50
90.0
 51
180.0
  0
ARC
  5
473
100
AcDbEntity
  8
0
100
AcDbCircle
 62
7
  6
CONTINUOUS
 10
328.3597773301
 20
371.4065052554
 40
4.0
100
AcDbArc
 50
180.0
 51
270.0
  0
ARC
  5
474
100
AcDbEntity
  8
0
100
AcDbCircle
 62
7
  6
CONTINUOUS
 10
67.3112587248
 20
298.7541117159
 40
3.25
100
AcDbArc
 50
135.0
 51
315.0
  0
ARC
  5
475
100
AcDbEntity
  8
0
100
AcDbCircle
 62
7
  6
CONTINUOUS
 10
67.3466140639
 20
298.7894670549
 40
3.25
100
AcDbArc
 50
315.0
 51
135.0
  0
ARC
  5
476
100
AcDbEntity
  8
0
100
AcDbCircle
 62
7
  6
CONTINUOUS
 10
67.3112587248
 20
358.9288987948
 40
3.25
100
AcDbArc
 50
45.0
 51
225.0
  0
ARC
  5
477
100
AcDbEntity
  8
0
100
AcDbCircle
 62
7
  6
CONTINUOUS
 10
67.3466140639
 20
358.8935434558
 40
3.25
100
AcDbArc
 50
225.0
 51
45.0
  0
ARC
  5
478
100
AcDbEntity
  8
0
100
AcDbCircle
 62
7
  6
CONTINUOUS
 10
127.4860458038
 20
298.7541117159
 40
3.25
100
AcDbArc
 50
225.0
 51
45.0
  0
ARC
  5
479
100
AcDbEntity
  8
0
100
AcDbCircle
 62
7
  6
CONTINUOUS
 10
127.4506904647
 20
298.7894670549
 40
3.25
100
AcDbArc
 50
45.0
 51
225.0
  0
ARC
  5
47A
100
AcDbEntity
  8
0
100
AcDbCircle
 62
7
  6
CONTINUOUS
 10
97.3986522643
 20
328.8415052554
 40
57.5
100
AcDbArc
 50
308.4999504092
 51
321.5000495908
  0
ARC
  5
47B
100
AcDbEntity
  8
0
100
AcDbCircle
 62
7
  6
CONTINUOUS
 10
97.3986522643
 20
328.8415052554
 40
57.5
100
AcDbArc
 50
218.4999504092
 51
231.5000495908
  0
ARC
  5
47C
100
AcDbEntity
  8
0
100
AcDbCircle
 62
7
  6
CONTINUOUS
 10
97.3986522643
 20
328.8415052554
 40
57.5
100
AcDbArc
 50
128.4999504092
 51
141.5000495908
  0
ARC
  5
47D
100
AcDbEntity
  8
0
100
AcDbCircle
 62
7
  6
CONTINUOUS
 10
97.3986522643
 20
328.8415052554
 40
57.5
100
AcDbArc
 50
38.4999504092
 51
51.5000495908
  0
ARC
  5
47E
100
AcDbEntity
  8
0
100
AcDbCircle
 62
7
  6
CONTINUOUS
 10
97.3986522643
 20
328.8415052554
 40
50.0
100
AcDbArc
 50
306.8698976458
 51
323.1301023542
  0
ARC
  5
47F
100
AcDbEntity
  8
0
100
AcDbCircle
 62
7
  6
CONTINUOUS
 10
97.3986522643
 20
328.8415052554
 40
50.0
100
AcDbArc
 50
216.8698976458
 51
233.1301023542
  0
ARC
  5
480
100
AcDbEntity
  8
0
100
AcDbCircle
 62
7
  6
CONTINUOUS
 10
97.3986522643
 20
328.8415052554
 40
50.0
100
AcDbArc
 50
126.8698976458
 51
143.1301023542
  0
ARC
  5
481
100
AcDbEntity
  8
0
100
AcDbCircle
 62
7
  6
CONTINUOUS
 10
97.3986522643
 20
328.8415052554
 40
50.0
100
AcDbArc
 50
36.8698976458
 51
53.1301023542
  0
ARC
  5
482
100
AcDbEntity
  8
0
100
AcDbCircle
 62
7
  6
CONTINUOUS
 10
97.3986522643
 20
328.8415052554
 40
45.0
100
AcDbArc
 50
312.1567038232
 51
317.8432961768
  0
ARC
  5
483
100
AcDbEntity
  8
0
100
AcDbCircle
 62
7
  6
CONTINUOUS
 10
97.3986522643
 20
328.8415052554
 40
45.0
100
AcDbArc
 50
242.9748458579
 51
297.0251541421
  0
ARC
  5
484
100
AcDbEntity
  8
0
100
AcDbCircle
 62
7
  6
CONTINUOUS
 10
97.3986522643
 20
328.8415052554
 40
45.0
100
AcDbArc
 50
222.1567038232
 51
227.8432961767
  0
ARC
  5
485
100
AcDbEntity
  8
0
100
AcDbCircle
 62
7
  6
CONTINUOUS
 10
97.3986522643
 20
328.8415052554
 40
45.0
100
AcDbArc
 50
332.9748458579
 51
27.0251541421
  0
ARC
  5
486
100
AcDbEntity
  8
0
100
AcDbCircle
 62
7
  6
CONTINUOUS
 10
97.3986522643
 20
328.8415052554
 40
45.0
100
AcDbArc
 50
42.1567038232
 51
47.8432961768
  0
ARC
  5
487
100
AcDbEntity
  8
0
100
AcDbCircle
 62
7
  6
CONTINUOUS
 10
97.3986522643
 20
328.8415052554
 40
45.0
100
AcDbArc
 50
62.9748458579
 51
117.0251541421
  0
ARC
  5
488
100
AcDbEntity
  8
0
100
AcDbCircle
 62
7
  6
CONTINUOUS
 10
97.3986522643
 20
328.8415052554
 40
45.0
100
AcDbArc
 50
132.1567038232
 51
137.8432961768
  0
ARC
  5
489
100
AcDbEntity
  8
0
100
AcDbCircle
 62
7
  6
CONTINUOUS
 10
97.3986522643
 20
328.8415052554
 40
45.0
100
AcDbArc
 50
152.9748458579
 51
207.0251541421
  0
ARC
  5
48A
100
AcDbEntity
  8
0
100
AcDbCircle
 62
7
  6
CONTINUOUS
 10
97.3986522643
 20
328.8415052554
 40
44.95
100
AcDbArc
 50
312.0244609729
 51
317.9755390271
  0
ARC
  5
48B
100
AcDbEntity
  8
0
100
AcDbCircle
 62
7
  6
CONTINUOUS
 10
97.3986522643
 20
328.8415052554
 40
44.95
100
AcDbArc
 50
243.0912059056
 51
296.9087940944
  0
ARC
  5
48C
100
AcDbEntity
  8
0
100
AcDbCircle
 62
7
  6
CONTINUOUS
 10
97.3986522643
 20
328.8415052554
 40
44.95
100
AcDbArc
 50
222.0244609729
 51
227.9755390271
  0
ARC
  5
48D
100
AcDbEntity
  8
0
100
AcDbCircle
 62
7
  6
CONTINUOUS
 10
97.3986522643
 20
328.8415052554
 40
44.95
100
AcDbArc
 50
333.0912059056
 51
26.9087940944
  0
ARC
  5
48E
100
AcDbEntity
  8
0
100
AcDbCircle
 62
7
  6
CONTINUOUS
 10
97.3986522643
 20
328.8415052554
 40
44.95
100
AcDbArc
 50
42.0244609729
 51
47.9755390271
  0
ARC
  5
48F
100
AcDbEntity
  8
0
100
AcDbCircle
 62
7
  6
CONTINUOUS
 10
97.3986522643
 20
328.8415052554
 40
44.95
100
AcDbArc
 50
63.0912059056
 51
116.9087940944
  0
ARC
  5
490
100
AcDbEntity
  8
0
100
AcDbCircle
 62
7
  6
CONTINUOUS
 10
97.3986522643
 20
328.8415052554
 40
44.95
100
AcDbArc
 50
132.0244609729
 51
137.9755390271
  0
ARC
  5
491
100
AcDbEntity
  8
0
100
AcDbCircle
 62
7
  6
CONTINUOUS
 10
97.3986522643
 20
328.8415052554
 40
44.95
100
AcDbArc
 50
153.0912059056
 51
206.9087940944
  0
ARC
  5
492
100
AcDbEntity
  8
0
100
AcDbCircle
 62
9
  6
CONTINUOUS
 10
97.3986522643
 20
328.8415052554
 40
42.565
100
AcDbArc
 50
310.6390274906
 51
319.3774757202
  0
ARC
  5
493
100
AcDbEntity
  8
0
100
AcDbCircle
 62
9
  6
CONTINUOUS
 10
97.3986522643
 20
328.8415052554
 40
42.565
100
AcDbArc
 50
250.07281999
 51
289.92718001
  0
ARC
  5
494
100
AcDbEntity
  8
0
100
AcDbCircle
 62
9
  6
CONTINUOUS
 10
97.3986522643
 20
328.8415052554
 40
42.565
100
AcDbArc
 50
220.6225242798
 51
229.3609725094
  0
ARC
  5
495
100
AcDbEntity
  8
0
100
AcDbCircle
 62
9
  6
CONTINUOUS
 10
97.3986522643
 20
328.8415052554
 40
42.565
100
AcDbArc
 50
340.3790348958
 51
19.6209651042
  0
ARC
  5
496
100
AcDbEntity
  8
0
100
AcDbCircle
 62
9
  6
CONTINUOUS
 10
97.3986522643
 20
328.8415052554
 40
42.565
100
AcDbArc
 50
40.6225242798
 51
49.3609725094
  0
ARC
  5
497
100
AcDbEntity
  8
0
100
AcDbCircle
 62
9
  6
CONTINUOUS
 10
97.3986522643
 20
328.8415052554
 40
42.565
100
AcDbArc
 50
70.07281999
 51
109.92718001
  0
ARC
  5
498
100
AcDbEntity
  8
0
100
AcDbCircle
 62
9
  6
CONTINUOUS
 10
97.3986522643
 20
328.8415052554
 40
42.565
100
AcDbArc
 50
130.6390274906
 51
139.3774757202
  0
ARC
  5
499
100
AcDbEntity
  8
0
100
AcDbCircle
 62
9
  6
CONTINUOUS
 10
97.3986522643
 20
328.8415052554
 40
42.565
100
AcDbArc
 50
160.3790348958
 51
199.6209651042
  0
CIRCLE
  5
49A
100
AcDbEntity
  8
ANSICHT_3D
100
AcDbCircle
 62
2
  6
CENTER
 10
97.3986522643
 20
328.8415052554
 40
42.5
  0
CIRCLE
  5
49B
100
AcDbEntity
  8
FASEN
100
AcDbCircle
 62
7
  6
CONTINUOUS
 10
97.3986522643
 20
328.8415052554
 40
35.0
  0
CIRCLE
  5
49C
100
AcDbEntity
  8
FASEN
100
AcDbCircle
 62
7
  6
CONTINUOUS
 10
97.3986522643
 20
328.8415052554
 40
34.4750540537
  0
CIRCLE
  5
49D
100
AcDbEntity
  8
0
100
AcDbCircle
 62
7
  6
CONTINUOUS
 10
97.3986522643
 20
328.8415052554
 40
20.0
  0
CIRCLE
  5
49E
100
AcDbEntity
  8
0
100
AcDbCircle
 62
7
  6
CONTINUOUS
 10
97.3986522643
 20
328.8415052554
 40
11.0
  0
ARC
  5
49F
100
AcDbEntity
  8
0
100
AcDbCircle
 62
7
  6
CONTINUOUS
 10
127.4860458038
 20
358.9288987948
 40
3.25
100
AcDbArc
 50
315.0
 51
135.0
  0
ARC
  5
4A0
100
AcDbEntity
  8
0
100
AcDbCircle
 62
7
  6
CONTINUOUS
 10
127.4506904647
 20
358.8935434558
 40
3.25
100
AcDbArc
 50
135.0
 51
315.0
  0
CIRCLE
  5
4A1
100
AcDbEntity
  8
BEZUGSACHSEN
100
AcDbCircle
 62
7
  6
CONTINUOUS
 10
561.0357219532
 20
312.768801096
 40
5.0
  0
CIRCLE
  5
4A2
100
AcDbEntity
  8
0
100
AcDbCircle
 62
7
  6
CONTINUOUS
 10
561.0357219532
 20
312.768801096
 40
3.5
  0
ARC
  5
4A3
100
AcDbEntity
  8
0
100
AcDbCircle
 62
2
  6
CONTINUOUS
 10
564.4833232593
 20
293.486166196
 40
3.0
100
AcDbArc
 50
255.0
 51
195.0
  0
CIRCLE
  5
4A4
100
AcDbEntity
  8
BEZUGSACHSEN
100
AcDbCircle
 62
7
  6
CONTINUOUS
 10
564.4833232593
 20
293.486166196
 40
2.5
  0
CIRCLE
  5
4A5
100
AcDbEntity
  8
BEZUGSACHSEN
100
AcDbCircle
 62
7
  6
CONTINUOUS
 10
583.7659581593
 20
367.6444456208
 40
5.0
  0
CIRCLE
  5
4A6
100
AcDbEntity
  8
0
100
AcDbCircle
 62
7
  6
CONTINUOUS
 10
583.7659581593
 20
367.6444456208
 40
3.5
  0
ARC
  5
4A7
100
AcDbEntity
  8
0
100
AcDbCircle
 62
2
  6
CONTINUOUS
 10
564.4833232593
 20
364.1968443147
 40
3.0
100
AcDbArc
 50
255.0
 51
195.0
  0
CIRCLE
  5
4A8
100
AcDbEntity
  8
BEZUGSACHSEN
100
AcDbCircle
 62
7
  6
CONTINUOUS
 10
564.4833232593
 20
364.1968443147
 40
2.5
  0
CIRCLE
  5
4A9
100
AcDbEntity
  8
BEZUGSACHSEN
100
AcDbCircle
 62
7
  6
CONTINUOUS
 10
615.911366478
 20
290.0385648899
 40
5.0
  0
CIRCLE
  5
4AA
100
AcDbEntity
  8
0
100
AcDbCircle
 62
7
  6
CONTINUOUS
 10
615.911366478
 20
290.0385648899
 40
3.5
  0
ARC
  5
4AB
100
AcDbEntity
  8
0
100
AcDbCircle
 62
2
  6
CONTINUOUS
 10
635.194001378
 20
293.486166196
 40
3.0
100
AcDbArc
 50
255.0
 51
195.0
  0
CIRCLE
  5
4AC
100
AcDbEntity
  8
BEZUGSACHSEN
100
AcDbCircle
 62
7
  6
CONTINUOUS
 10
635.194001378
 20
293.486166196
 40
2.5
  0
ARC
  5
4AD
100
AcDbEntity
  8
0
100
AcDbCircle
 62
7
  6
CONTINUOUS
 10
599.8386623186
 20
328.8415052554
 40
57.5
100
AcDbArc
 50
128.4999504092
 51
141.5000495908
  0
ARC
  5
4AE
100
AcDbEntity
  8
0
100
AcDbCircle
 62
7
  6
CONTINUOUS
 10
599.8386623186
 20
328.8415052554
 40
57.5
100
AcDbArc
 50
38.4999504092
 51
51.5000495908
  0
ARC
  5
4AF
100
AcDbEntity
  8
0
100
AcDbCircle
 62
7
  6
CONTINUOUS
 10
599.8386623186
 20
328.8415052554
 40
57.5
100
AcDbArc
 50
308.4999504092
 51
321.5000495908
  0
ARC
  5
4B0
100
AcDbEntity
  8
0
100
AcDbCircle
 62
7
  6
CONTINUOUS
 10
599.8386623186
 20
328.8415052554
 40
57.5
100
AcDbArc
 50
218.4999504092
 51
231.5000495908
  0
CIRCLE
  5
4B1
100
AcDbEntity
  8
ANSICHT_3D
100
AcDbCircle
 62
2
  6
CENTER
 10
599.8386623186
 20
328.8415052554
 40
50.0
  0
ARC
  5
4B2
100
AcDbEntity
  8
BEZUGSACHSEN
100
AcDbCircle
 62
7
  6
CONTINUOUS
 10
599.8386623186
 20
328.8415052554
 40
40.0
100
AcDbArc
 50
208.9092039782
 51
286.0907960218
  0
ARC
  5
4B3
100
AcDbEntity
  8
BEZUGSACHSEN
100
AcDbCircle
 62
7
  6
CONTINUOUS
 10
599.8386623186
 20
328.8415052554
 40
40.0
100
AcDbArc
 50
118.9092039782
 51
196.0907960218
  0
ARC
  5
4B4
100
AcDbEntity
  8
BEZUGSACHSEN
100
AcDbCircle
 62
7
  6
CONTINUOUS
 10
599.8386623186
 20
328.8415052554
 40
40.0
100
AcDbArc
 50
298.9092039782
 51
16.0907960218
  0
ARC
  5
4B5
100
AcDbEntity
  8
BEZUGSACHSEN
100
AcDbCircle
 62
7
  6
CONTINUOUS
 10
599.8386623186
 20
328.8415052554
 40
40.0
100
AcDbArc
 50
28.9092039782
 51
106.0907960218
  0
CIRCLE
  5
4B6
100
AcDbEntity
  8
0
100
AcDbCircle
 62
7
  6
CONTINUOUS
 10
599.8386623186
 20
328.8415052554
 40
23.5
  0
ARC
  5
4B7
100
AcDbEntity
  8
0
100
AcDbCircle
 62
7
  6
CONTINUOUS
 10
599.8386623186
 20
328.8415052554
 40
20.0
100
AcDbArc
 50
272.1490956269
 51
267.8509043731
  0
ARC
  5
4B8
100
AcDbEntity
  8
0
100
AcDbCircle
 62
7
  6
CONTINUOUS
 10
599.8386623186
 20
328.8415052554
 40
19.95
100
AcDbArc
 50
267.8455156316
 51
272.1544843684
  0
CIRCLE
  5
4B9
100
AcDbEntity
  8
0
100
AcDbCircle
 62
7
  6
CONTINUOUS
 10
599.8386623186
 20
328.8415052554
 40
9.5
  0
ARC
  5
4BA
100
AcDbEntity
  8
0
100
AcDbCircle
 62
7
  6
CONTINUOUS
 10
599.8386623186
 20
328.8415052554
 40
9.475
100
AcDbArc
 50
274.5400354443
 51
265.4599645557
  0
ARC
  5
4BB
100
AcDbEntity
  8
0
100
AcDbCircle
 62
7
  6
CONTINUOUS
 10
599.8386623186
 20
328.8415052554
 40
8.0
100
AcDbArc
 50
275.3793789911
 51
264.6206210089
  0
CIRCLE
  5
4BC
100
AcDbEntity
  8
BEZUGSACHSEN
100
AcDbCircle
 62
7
  6
CONTINUOUS
 10
638.6416026841
 20
344.9142094147
 40
5.0
  0
CIRCLE
  5
4BD
100
AcDbEntity
  8
0
100
AcDbCircle
 62
7
  6
CONTINUOUS
 10
638.6416026841
 20
344.9142094147
 40
3.5
  0
ARC
  5
4BE
100
AcDbEntity
  8
0
100
AcDbCircle
 62
2
  6
CONTINUOUS
 10
635.194001378
 20
364.1968443147
 40
3.0
100
AcDbArc
 50
255.0
 51
195.0
  0
CIRCLE
  5
4BF
100
AcDbEntity
  8
BEZUGSACHSEN
100
AcDbCircle
 62
7
  6
CONTINUOUS
 10
635.194001378
 20
364.1968443147
 40
2.5
  0
SPLINE
  5
4C0
100
AcDbEntity
  8
0
100
AcDbSpline
 62
7
  6
CONTINUOUS
 70
0
 71
3
 72
11
 73
7
 74
0
 42
0.0000001
 43
0.0000001
 44
0.0000000001
 40
0.0
 40
0.0
 40
0.0
 40
0.0
 40
0.2497790478
 40
0.4997556857
 40
0.7498508072
 40
1.0
 40
1.0
 40
1.0
 40
1.0
 10
285.1097773301
 20
293.0469525972
 30
0.0
 10
286.8038624513
 20
295.6341352446
 30
0.0
 10
289.5001803089
 20
301.278858905
 30
0.0
 10
291.8008425324
 20
310.3083406138
 30
0.0
 10
292.9014474847
 20
319.5485626007
 30
0.0
 10
293.1097773301
 20
325.7444415858
 30
0.0
 10
293.1097773301
 20
328.8415052554
 30
0.0
  0
SPLINE
  5
4C1
100
AcDbEntity
  8
0
100
AcDbSpline
 62
7
  6
CONTINUOUS
 70
0
 71
3
 72
11
 73
7
 74
0
 42
0.0000001
 43
0.0000001
 44
0.0000000001
 40
0.0
 40
0.0
 40
0.0
 40
0.0
 40
0.250149011
 40
0.5002439632
 40
0.7502202631
 40
1.0
 40
1.0
 40
1.0
 40
1.0
 10
293.1097773301
 20
328.8415052554
 30
0.0
 10
293.1097773301
 20
331.9385666662
 30
0.0
 10
292.9014476273
 20
338.1344412712
 30
0.0
 10
291.8008447032
 20
347.3746548581
 30
0.0
 10
289.5001850043
 20
356.4041392442
 30
0.0
 10
286.8038671213
 20
362.0488681343
 30
0.0
 10
285.1097773301
 20
364.6360579135
 30
0.0
  0
ENDSEC
  0
SECTION
  2
OBJECTS
  0
DICTIONARY
  5
C
100
AcDbDictionary
280
0
281
1
  3
ACAD_GROUP
350
D
  3
ACAD_MLINESTYLE
350
17
  3
ACAD_LAYOUT
350
1A
  3
ACAD_PLOTSETTINGS
350
19
  3
ACAD_PLOTSTYLENAME
350
E
  0
DICTIONARY
  5
D
102
{ACAD_REACTORS
330
C
102
}
100
AcDbDictionary
280
0
281
1
  0
ACDBDICTIONARYWDFLT
  5
E
102
{ACAD_REACTORS
330
C
102
}
100
AcDbDictionary
281
1
  3
Normal
350
F
100
AcDbDictionaryWithDefault
340
F
  0
DICTIONARY
  5
17
102
{ACAD_REACTORS
330
C
102
}
100
AcDbDictionary
280
0
281
1
  3
Standard
350
18
  0
DICTIONARY
  5
19
102
{ACAD_REACTORS
330
C
102
}
100
AcDbDictionary
281
1
  0
DICTIONARY
  5
1A
102
{ACAD_REACTORS
330
C
102
}
100
AcDbDictionary
281
1
  3
Model
350
4C2
  3
Layout1
350
4C3
  0
ACDBPLACEHOLDER
  5
F
102
{ACAD_REACTORS
330
E
102
}
  0
MLINESTYLE
  5
18
102
{ACAD_REACTORS
330
17
102
}
100
AcDbMlineStyle
  2
STANDARD
 70
0
  3

 62
256
 51
90.0
 52
90.0
 71
2
 49
0.5
 62
256
  6
BYLAYER
 49
-0.5
 62
256
  6
BYLAYER
  0
LAYOUT
  5
4C2
102
{ACAD_REACTORS
330
1A
102
}
100
AcDbPlotSettings
  1

  2
none_device
  4
ISO_A3_(420.00_x_297.00_MM)
  6

 40
0.0
 41
0.0
 42
0.0
 43
0.0
 44
420.0
 45
297.0
 46
0.0
 47
0.0
 48
0.0
 49
0.0
140
0.0
141
0.0
142
1.0
143
1.0
 70
1024
 72
1
 73
0
 74
0
  7

 75
0
147
1.0
148
0.0
149
0.0
100
AcDbLayout
  1
Model
 70
0
 71
0
 10
0.0
 20
0.0
 11
420.0
 21
297.0
 12
0.0
 22
0.0
 32
0.0
 14
0.0
 24
0.0
 34
0.0
 15
0.0
 25
0.0
 35
0.0
146
0.0
 13
0.0
 23
0.0
 33
0.0
 16
1.0
 26
0.0
 36
0.0
 17
0.0
 27
1.0
 37
0.0
 76
0
330
21A
345
0
346
0
  0
LAYOUT
  5
4C3
102
{ACAD_REACTORS
330
1A
102
}
100
AcDbPlotSettings
  1

  2
none_device
  4
ISO_A3_(420.00_x_297.00_MM)
  6

 40
0.0
 41
0.0
 42
0.0
 43
0.0
 44
420.0
 45
297.0
 46
0.0
 47
0.0
 48
0.0
 49
0.0
140
0.0
141
0.0
142
1.0
143
1.0
 70
0
 72
1
 73
0
 74
0
  7

 75
0
147
1.0
148
0.0
149
0.0
100
AcDbLayout
  1
Layout1
 70
0
 71
1
 10
0.0
 20
0.0
 11
420.0
 21
297.0
 12
0.0
 22
0.0
 32
0.0
 14
0.0
 24
0.0
 34
0.0
 15
0.0
 25
0.0
 35
0.0
146
0.0
 13
0.0
 23
0.0
 33
0.0
 16
1.0
 26
0.0
 36
0.0
 17
0.0
 27
1.0
 37
0.0
 76
0
330
21B
345
0
346
0
  0
ENDSEC
  0
EOF
